Важное объявление!
У Нас Все раздачи мультитрекерные, при нуле пиров в релизах, можете смело вставать на закачку!
 
Автор Сообщение

HUNTER

Стаж:
4 года 9 месяцев
Сообщений:
65047

Репутация: 101

[+] [-]
Вне форума [Профиль] [ЛС]

Кот Гром и заколдованный дом / The House of Magic
-
Страна : США, Бельгия
Студия : Anton Capital Entertainment (ACE), nWave Pictures, Studio Canal International, uMedia Family
Жанр : мультфильм, семейный
Продолжительность : 01:25:28
Год выпуска : 2013
Перевод : Профессиональный (дублированный) [Чистый звук]
Русские субтитры : нет
Режиссёры : Джереми Дегрусон, Бен Стассен / Jeremy Degruson, Ben Stassen
Роли озвучивали: Синда Адамс, Эдвард Эснер, Эмили Блант, Грант Джордж, Дэнни Манн, Юэн МакГрегор, Рон Перлман, Кифер Сазерленд, Бриджит Хоффман, Кэти Ли
Роли дублировали: Александр Якин, Людмила Артемьева, Михаил Башкатов, Роман Юнусов, Федор Добронравов
-

-
Описание : Любопытный рыжий кот попадает в дом старого фокусника и узнает секрет его трюков. Так начинается его знакомство с учеными зверями и живыми игрушками, а также невероятные приключения полные юмора и опасностей.
-

Качество : BDRip 720p
Формат : MKV
Видео : AVC, 1280x720 (16:9), 24.000 fps, ~4269 kbps avg, 0.192 bit/pixel
Аудио 1 : Русский, AC3, 48.0 kHz, 2 ch, ~192 kbps (Дублированный)
Субтитры : Отсутствуют
-
MediaInfo
General Unique ID : 235953316637039606859524437324521690167 (0xB182F4AF3C30EAFEA8927D014D5E5437) Complete name : E:/Torrent_2/Kot.Gr0m.i.Zak0ld0vannyy.dom.2014.D.BDRip.720p (1).mkv Format : Matroska Format version : Version 2 File size : 2.74 GiB Duration : 1h 25mn Overall bit rate : 4 582 Kbps Movie name : M@HD Encoded date : UTC 2014-06-04 09:56:29 Writing application : mkvmerge v5.5.0 ('Healer') built on Apr 6 2012 21:43:24 Writing library : libebml v1.2.3 + libmatroska v1.3.0
Video #1 ID : 1 Format : AVC Format/Info : Advanced Video Codec Format profile : High@L4.1 Format settings, CABAC : Yes Format settings, ReFrames : 4 frames Codec ID : V_MPEG4/ISO/AVC Duration : 1h 25mn Bit rate : 4 299 Kbps Width : 1 280 pixels Height : 720 pixels Display aspect ratio : 16:9 Frame rate mode : Constant Frame rate : 24.000 fps Color space : YUV Chroma subsampling : 4:2:0 Bit depth : 8 bits Scan type : Progressive Bits/(Pixel*Frame) : 0.194 Stream size : 2.57 GiB (94%) Writing library : x264 core 142 r2431+42 c69a006 tMod [8-bit@all X86_64] Encoding settings : cabac=1 / ref=2 / deblock=1:0:0 / analyse=0x3:0x133 / me=hex / subme=2 / psy=1 / fade_compensate=0.00 / psy_rd=1.00:0.00 / mixed_ref=1 / me_range=16 / chroma_me=1 / trellis=2 / 8x8dct=1 / cqm=0 / deadzone=21,11 / fast_pskip=0 / chroma_qp_offset=0 / threads=12 / lookahead_threads=5 / sliced_threads=0 / nr=0 / decimate=1 / interlaced=0 / bluray_compat=0 / constrained_intra=0 / fgo=0 / bframes=2 / b_pyramid=2 / b_adapt=2 / b_bias=0 / direct=1 / weightb=1 / open_gop=0 / weightp=2 / keyint=240 / keyint_min=24 / scenecut=40 / intra_refresh=0 / rc=crf / mbtree=0 / crf=16.9000 / qcomp=0.60 / qpmin=0:0:0 / qpmax=69:69:69 / qpstep=4 / ip_ratio=1.40 / pb_ratio=1.30 / aq=1:1.00 / aq-sensitivity=10.00 / aq-factor=1.00:1.00:1.00 / aq2=0 / aq3=0 Default : Yes Forced : No
Audio #2 ID : 2 Format : AC-3 Format/Info : Audio Coding 3 Mode extension : CM (complete main) Format settings, Endianness : Big Codec ID : A_AC3 Duration : 1h 25mn Bit rate mode : Constant Bit rate : 192 Kbps Channel(s) : 2 channels Channel positions : Front: L R Sampling rate : 48.0 KHz Bit depth : 16 bits Compression mode : Lossy Stream size : 117 MiB (4%) Title : DUB Language : Russian Default : Yes Forced : No
Скриншоты

_________________
Показать сообщения:    

Текущее время: Сегодня 02:22

Часовой пояс: GMT



Вы не можете начинать темы
Вы не можете отвечать на сообщения
Вы не можете редактировать свои сообщения
Вы не можете удалять свои сообщения
Вы не можете голосовать в опросах
Вы не можете прикреплять файлы к сообщениям
Вы не можете скачивать файлы