Ивановский Торрент трекер
Яндекс.Погода
 

[Цитировать]
HUNTER

Кот в сапогах / Puss in Boots«А до Шрэка был...»- Год выхода: 2011
Жанр: мультфильм, комедия, приключения, семейный
Выпущено: США
Продолжительность: 01:30:15
Перевод: Профессиональный (дублированный) [лицензия]
Русские субтитры: есть
Режиссёр: Крис Миллер / Chris Miller
Роли озвучивали / дублировали:
Кот в сапогах - Антонио Бандерас / Всеволод Кузнецов
Киса-Мягколапка - Сальма Хайек / Татьяна Шитова
Шалтай-Болтай - Зак Галифианакис / Диомид Виноградов
Джек - Билли Боб Торнтон / Владимир Зайцев
Джилл - Эми Седарис / Марина Бакина
Имельда - Констанс Мари / Ирина Киреева
Сюжет фильма:
Мечи пересекутся и сердца будут разбиты в приключениях с одним из самых любимых персонажей из Шрэка - котом в сапогах. Это удалая поездка ранних лет кота в сапогах, когда он объединяется с умным Шалтай-Болтаем и сообразительной Кисой, чтобы украсть знаменитую Гусыню, несущую золотые яйца.

Качество: BDRip [EbP]
Формат: MKV
Видео кодек: MPEG4 Video (H264)
Аудио кодек: DTS, AC3
Видео: 1280x544 (2.35:1), 23.976 fps, x264 MPEG-4 ~4100 kbps avg, 0.246 bit/pixel
Аудио:
  • Russian 48 kHz, AC3, 3/2 (L,C,R,l,r) + LFE ch, ~448.00 kbps [лицензия]
  • Ukrainian 48 kHz, AC3 Dolby Digital, 3/2 (L,C,R,l,r) + LFE ch, ~448 kbps [лицензия]
  • English 48 kHz, DTS, 3/2 (L,C,R,l,r) + LFE ch, ~1510 kbps
Дополнительная информация: Сохранены оригинальные чаптеры как на Blu-Ray-

Сэмпл

MediaInfo

General
UniqueID : 237975593319488982938016513021705554208 (0xB3086E9F76DD18F4AE86372D07158920)
Complete name : D:\Мультики\Kot v sapogah.mkv
Format : Matroska
File size : 4.18 GiB
Duration : 1h 30mn
Overall bit rate : 6 627 Kbps
Encoded date : UTC 2012-03-13 13:41:35
Writing application : mkvmerge v5.0.1 ('Es ist Sommer') built on Oct 24 2011 19:45:06
Writing library : libebml v1.2.2 + libmatroska v1.3.0
Video
ID : 1
Format : AVC
Format/Info : Advanced Video Codec
Format profile : High@L4.1
Format settings, CABAC : Yes
Format settings, ReFrames : 12 frames
Codec ID : V_MPEG4/ISO/AVC
Duration : 1h 30mn
Bit rate : 4 089 Kbps
Width : 1 280 pixels
Height : 544 pixels
Display aspect ratio : 2.35:1
Frame rate : 23.976 fps
Color space : YUV
Chroma subsampling : 4:2:0
Bit depth : 8 bits
Scan type : Progressive
Bits/(Pixel*Frame) : 0.245
Stream size : 2.58 GiB (62%)
Writing library : x264 core 120 r2164 da19765
Encoding settings : cabac=1 / ref=12 / deblock=1:-3:-3 / analyse=0x3:0x113 / me=tesa / subme=11 / psy=1 / psy_rd=0.80:0.00 / mixed_ref=1 / me_range=24 / chroma_me=1 / trellis=2 / 8x8dct=1 / cqm=0 / deadzone=21,11 / fast_pskip=0 / chroma_qp_offset=-2 / threads=6 / sliced_threads=0 / nr=0 / decimate=0 / interlaced=0 / bluray_compat=0 / constrained_intra=0 / bframes=7 / b_pyramid=2 / b_adapt=2 / b_bias=0 / direct=3 / weightb=1 / open_gop=0 / weightp=2 / keyint=250 / keyint_min=23 / scenecut=40 / intra_refresh=0 / rc_lookahead=60 / rc=crf / mbtree=0 / crf=15.5 / qcomp=0.60 / qpmin=0 / qpmax=69 / qpstep=4 / vbv_maxrate=38000 / vbv_bufsize=30000 / crf_max=0.0 / nal_hrd=none / ip_ratio=1.40 / pb_ratio=1.30 / aq=1:0.90
Language : Russian
Color primaries : BT.709-5, BT.1361, IEC 61966-2-4, SMPTE RP177
Transfer characteristics : BT.709-5, BT.1361
Matrix coefficients : BT.709-5, BT.1361, IEC 61966-2-4 709, SMPTE RP177
Audio #1
ID : 2
Format : AC-3
Format/Info : Audio Coding 3
Mode extension : CM (complete main)
Codec ID : A_AC3
Duration : 1h 30mn
Bit rate mode : Constant
Bit rate : 448 Kbps
Channel(s) : 6 channels
Channel positions : Front: L C R, Side: L R, LFE
Sampling rate : 48.0 KHz
Bit depth : 16 bits
Compression mode : Lossy
Stream size : 289 MiB (7%)
Title : Rus
Language : Russian
Audio #2
ID : 3
Format : AC-3
Format/Info : Audio Coding 3
Mode extension : CM (complete main)
Codec ID : A_AC3
Duration : 1h 30mn
Bit rate mode : Constant
Bit rate : 448 Kbps
Channel(s) : 6 channels
Channel positions : Front: L C R, Side: L R, LFE
Sampling rate : 48.0 KHz
Bit depth : 16 bits
Compression mode : Lossy
Stream size : 289 MiB (7%)
Title : Ukr
Language : Ukrainian
Audio #3
ID : 4
Format : DTS
Format/Info : Digital Theater Systems
Codec ID : A_DTS
Duration : 1h 30mn
Bit rate mode : Constant
Bit rate : 1 510 Kbps
Channel(s) : 6 channels
Channel positions : Front: L C R, Side: L R, LFE
Sampling rate : 48.0 KHz
Bit depth : 24 bits
Compression mode : Lossy
Stream size : 975 MiB (23%)
Title : Original
Language : English
Text #1
ID : 5
Format : UTF-8
Codec ID : S_TEXT/UTF8
Codec ID/Info : UTF-8 Plain Text
Title : Rus Forced
Language : Russian
Text #2
ID : 6
Format : UTF-8
Codec ID : S_TEXT/UTF8
Codec ID/Info : UTF-8 Plain Text
Title : Rus
Language : Russian
Text #3
ID : 7
Format : UTF-8
Codec ID : S_TEXT/UTF8
Codec ID/Info : UTF-8 Plain Text
Title : Ukr Forced
Language : Ukrainian
Text #4
ID : 8
Format : UTF-8
Codec ID : S_TEXT/UTF8
Codec ID/Info : UTF-8 Plain Text
Title : Ukr
Language : Ukrainian
Text #5
ID : 9
Format : UTF-8
Codec ID : S_TEXT/UTF8
Codec ID/Info : UTF-8 Plain Text
Title : Eng
Language : English
Text #6
ID : 10
Format : UTF-8
Codec ID : S_TEXT/UTF8
Codec ID/Info : UTF-8 Plain Text
Title : Eng SDH
Language : English
Menu
00:00:00.000 : en:Chapter 01
00:03:25.247 : en:Chapter 02
00:07:20.148 : en:Chapter 03
00:11:46.831 : en:Chapter 04
00:15:53.369 : en:Chapter 05
00:19:23.537 : en:Chapter 06
00:25:58.348 : en:Chapter 07
00:29:22.427 : en:Chapter 08
00:34:06.461 : en:Chapter 09
00:39:17.438 : en:Chapter 10
00:44:12.108 : en:Chapter 11
00:49:34.054 : en:Chapter 12
00:54:05.951 : en:Chapter 13
00:57:38.205 : en:Chapter 14
01:03:05.991 : en:Chapter 15
01:08:14.716 : en:Chapter 16
01:16:51.774 : en:Chapter 17
01:19:42.194 : en:Chapter 18

Скриншоты

14.03.2012 Раздача обновлена.
Русская дорожка заменена на лицензию и добавлен украинский дубляж.
Показать сообщения:    

Текущее время: 23-Окт 23:33

Часовой пояс: UTC - 1


Вы не можете начинать темы
Вы не можете отвечать на сообщения
Вы не можете редактировать свои сообщения
Вы не можете удалять свои сообщения
Вы не можете голосовать в опросах
Вы не можете прикреплять файлы к сообщениям
Вы не можете скачивать файлы

!ВНИМАНИЕ!
Сайт не предоставляет электронные версии произведений, а занимается лишь коллекционированием и каталогизацией ссылок, присылаемых и публикуемых на форуме нашими читателями. Если вы являетесь правообладателем какого-либо представленного материала и не желаете, чтобы ссылка на него находилась в нашем каталоге, свяжитесь с нами, и мы незамедлительно удалим ее. Файлы для обмена на трекере предоставлены пользователями сайта, и администрация не несет ответственности за их содержание. Просьба не заливать файлы, защищенные авторскими правами, а также файлы нелегального содержания!