Важное объявление!
У Нас Все раздачи мультитрекерные, при нуле пиров в релизах, можете смело вставать на закачку!
 
Автор Сообщение

HUNTER

Стаж:
4 года 10 месяцев
Сообщений:
65557

Репутация: 101

[+] [-]
Вне форума [Профиль] [ЛС]

Кости / Боунс / Bones
Страна: США
Студия: New Line Cinema, Lloyd Segan Company, The, Heller Highwater Productions
Жанр: ужасы, криминал
Год выпуска: 2001
Продолжительность: 01:36:55
Перевод: Профессиональный (многоголосый закадровый)
Cубтитры: русские, английские
Оригинальная аудиодорожка: английский
Режиссер: Эрнест Р. Дикерсон / Ernest R. Dickerson
В ролях: Снуп Догг, Пэм Гриер, Майкл Т. Уайсс, Клифтон Пауэлл, Рики Харрис, Бьянка Лоусон, Халил Кейн, Мервин Мондесер, Шон Амсинг, Кэтрин Изабелль и др.
Описание: В 1979 году Джимми Бонс был уважаемым и авторитетным человеком в своем районе. Его предал и зверски убил коррумпированный полицейский Лупович. Стена его элегантного дома становится его надгробной плитой. Спустя много лет этот район превратился в трущобы. Четверо подростков превратили дом в ночной клуб и невольно высвободили не отмщенный дух Джимми.
II Сэмпл II IMDB II
Доп. информация:
За многоголоску и русские субтитры спасибо phillvan
Тип релиза: WEB-DL 1080p
Контейнер: MKV
Видео: AVC / 1916x816 / 2.35:1 / 23.976fps / Bit rate / 4168Kbps
Аудио 1: AC3 / 48.0 KHz / 6ch. / 448kbps / rus / MVO
Аудио 2: AC3 / 48.0 KHz / 6ch. / 384kbps / eng
Формат субтитров: softsub (SRT)

MediaInfo

Общее
Уникальный идентификатор : 211900723618595609830489792552374295654 (0x9F6A984A697BBC50B472CB2A8DBEDC66)
Полное имя : G:\!!!_torrent\Bones.2001.WEB-DL.1080p_by_vedigo.mkv
Формат : Matroska
Версия формата : Version 4 / Version 2
Размер файла : 3,39 Гбайт
Продолжительность : 1 ч. 36 м.
Общий поток : 5003 Кбит/сек
Название фильма : Bones.2001.WEB-DL.1080p_by_vedigo
Дата кодирования : UTC 2015-12-14 03:12:48
Программа кодирования : mkvmerge v8.6.1 ('Flying') 64bit
Библиотека кодирования : libebml v1.3.3 + libmatroska v1.4.4
Видео
Идентификатор : 1
Формат : AVC
Формат/Информация : Advanced Video Codec
Профиль формата : High@L4
Параметр CABAC формата : Да
Параметр ReFrames формата : 5 кадров
Идентификатор кодека : V_MPEG4/ISO/AVC
Продолжительность : 1 ч. 36 м.
Битрейт : 4168 Кбит/сек
Ширина : 1916 пикселей
Высота : 816 пикселей
Соотношение сторон : 2,35:1
Режим частоты кадров : Постоянный
Частота кадров : 23,976 (23976/1000) кадра/сек
Цветовое пространство : YUV
Субдискретизация насыщенности : 4:2:0
Битовая глубина : 8 бит
Тип развёртки : Прогрессивная
Бит/(Пиксели*Кадры) : 0.111
Размер потока : 2,82 Гбайт (83%)
Заголовок : Bones.2001.WEB-DL.1080p_by_vedigo
Default : Да
Forced : Нет
Цветовой диапазон : Limited
Основные цвета : BT.709
Характеристики трансфера : BT.709
Коэффициенты матрицы : BT.709
Аудио #1
Идентификатор : 2
Формат : AC-3
Формат/Информация : Audio Coding 3
Расширение режима : CM (complete main)
Параметр Endianness формата : Big
Идентификатор кодека : A_AC3
Продолжительность : 1 ч. 36 м.
Вид битрейта : Постоянный
Битрейт : 448 Кбит/сек
Каналы : 6 каналов
Расположение каналов : Front: L C R, Side: L R, LFE
Частота : 48,0 КГц
Частота кадров : 31,250 кадров/сек (1536 spf)
Метод сжатия : С потерями
Размер потока : 311 Мбайт (9%)
Заголовок : MVO
Язык : Russian
Default : Да
Forced : Нет
Аудио #2
Идентификатор : 3
Формат : AC-3
Формат/Информация : Audio Coding 3
Расширение режима : CM (complete main)
Параметр Endianness формата : Big
Идентификатор кодека : A_AC3
Продолжительность : 1 ч. 36 м.
Вид битрейта : Постоянный
Битрейт : 384 Кбит/сек
Каналы : 6 каналов
Расположение каналов : Front: L C R, Side: L R, LFE
Частота : 48,0 КГц
Частота кадров : 31,250 кадров/сек (1536 spf)
Метод сжатия : С потерями
Размер потока : 266 Мбайт (8%)
Заголовок : original
Язык : English
Default : Нет
Forced : Нет
Текст #1
Идентификатор : 4
Формат : UTF-8
Идентификатор кодека : S_TEXT/UTF8
Идентификатор кодека/Информация : UTF-8 Plain Text
Продолжительность : 1 ч. 30 м.
Битрейт : 71 бит/сек
Count of elements : 1213
Размер потока : 47,8 Кбайт (0%)
Заголовок : subtitle rus
Язык : Russian
Default : Нет
Forced : Нет
Текст #2
Идентификатор : 5
Формат : UTF-8
Идентификатор кодека : S_TEXT/UTF8
Идентификатор кодека/Информация : UTF-8 Plain Text
Продолжительность : 1 ч. 30 м.
Битрейт : 50 бит/сек
Count of elements : 1213
Размер потока : 33,6 Кбайт (0%)
Заголовок : subtitle eng
Язык : English
Default : Нет
Forced : Нет
Меню
00:00:00.000 : en:Revelation 22 Verse 15
00:05:56.000 : en:1979 / Main Titles
00:08:59.000 : en:The New Place
00:12:37.000 : en:Taking a Look Around
00:16:44.000 : en:Don't Feed that Dogg
00:19:11.000 : en:Eddie Mac and Lupovich
00:24:48.000 : en:My Old Pal J Bird
00:29:09.000 : en:Looking Back
00:34:18.000 : en:Digging up Jimmy Bones
00:40:06.000 : en:Send a Message/ Sell it back
00:48:35.000 : en:The Meeting
00:55:59.000 : en:Club Illbient
01:01:28.000 : en:Dogg's on the Loose
01:06:35.000 : en:Resurrected
01:10:27.000 : en:Rounding up the Old Gang
01:18:49.000 : en:The Big Payback
01:22:09.000 : en:Family Reunion
01:27:11.000 : en:Dogg Eat Dogg
01:32:00.000 : en:End Credits

Скриншоты



_________________
Показать сообщения:    

Текущее время: Сегодня 23:43

Часовой пояс: GMT



Вы не можете начинать темы
Вы не можете отвечать на сообщения
Вы не можете редактировать свои сообщения
Вы не можете удалять свои сообщения
Вы не можете голосовать в опросах
Вы не можете прикреплять файлы к сообщениям
Вы не можете скачивать файлы