Ивановский Торрент трекер
Яндекс.Погода
 

[Цитировать]
palych74

Костер на снегу -Год выпуска: 2012
Производство: Россия, кинокомпания "Русское"
Жанр: мелодрама
Продолжительность: 00:46:04
Режиссёр: Сергей Краснов-В ролях: Дарья Щербакова, Александр Голубев, Андрей Чадов, Надежда Маркина, Дэник Неверов, Григорий Кокоткин, Виктория Таранец, Андрей Курилов, Анастасия Стежко, Александр Никольский, Михаил Негин-Описание: Настя, добрая и наивная девушка, возвращается после интерната домой в родную деревню. Ее семья живет в нищете, но Настю не пугают трудности, ведь она прекрасный маляр и работа для нее всегда найдется. Однако очень быстро девушка понимает, что лишняя в своем доме: вечно пьяный отчим не рад новому жильцу и мать стала совсем чужой.
Неожиданно судьба поворачивается к Насте лицом: сын губернатора Павел, приехавший в деревушку на конкурс песни, очарован девушкой, и у них быстро завязывается роман. Но когда Настя обнаруживает, что беременна, оказывается, что у Павла совсем другие планы на жизнь..-Доп.информация:
Любая реклама ОТСУТСТВУЕТ!--Сэмпл-Качество: SATRip
Формат: AVI
Видео кодек: XviD
Аудио кодек: MP3
Видео: 720x400 (1.80:1), 25 fps, XviD build 50 ~1600 kbps avg, 0.22 bit/pixel
Аудио: 48 kHz, MPEG Layer 3, 2 ch, ~128.00 kbps avg

MI

ОбщееПолное имя : D:\Раздачи\Koster.na.snegu.2012.SATRip\Koster.na.snegu.01.2012.SATRip.aviФормат : AVIФормат/Информация : Audio Video InterleaveРазмер файла : 574 МбайтПродолжительность : 46 м.Общий поток : 1741 Кбит/секБиблиотека кодирования : Boilsoft AVI tool build 1/release
ВидеоИдентификатор : 0Формат : MPEG-4 VisualПрофиль формата : Simple@L3Параметр BVOP формата : НетПараметр QPel формата : НетПараметр GMC формата : Без точки переходаПараметр матрицы формата : Default (H.263)Идентификатор кодека : XviDИдентификатор кодека/Подсказка : XviDПродолжительность : 46 м.Битрейт : 1600 Кбит/секШирина : 720 пикселейВысота : 400 пикселейСоотношение сторон : 16:9Частота кадров : 25,000 кадров/секЦветовое пространство : YUVСубдискретизация насыщенности : 4:2:0Битовая глубина : 8 битТип развёртки : ПрогрессивнаяМетод сжатия : С потерямиБит/(Пиксели*Кадры) : 0.222Размер потока : 527 Мбайт (92%)Библиотека кодирования : XviD 1.2.1 (UTC 2008-12-04)
АудиоИдентификатор : 1Формат : MPEG AudioВерсия формата : Version 1Профиль формата : Layer 3Режим : Joint stereoИдентификатор кодека : 55Идентификатор кодека/Подсказка : MP3Продолжительность : 46 м.Вид битрейта : ПостоянныйБитрейт : 128 Кбит/секКаналы : 2 каналаЧастота : 48,0 КГцМетод сжатия : С потерямиРазмер потока : 42,2 Мбайт (7%)Выравнивание : Соединение по промежуткамПродолжительность промежутка : 24 мс. (0,60 видеокадр)Время предзагрузки промежутка : 504 мс.Библиотека кодирования : LAME3.98.2

Скриншоты



Показать сообщения:    

Текущее время: 11-Дек 22:58

Часовой пояс: UTC ± 0


Вы не можете начинать темы
Вы не можете отвечать на сообщения
Вы не можете редактировать свои сообщения
Вы не можете удалять свои сообщения
Вы не можете голосовать в опросах
Вы не можете прикреплять файлы к сообщениям
Вы не можете скачивать файлы

!ВНИМАНИЕ!
Сайт не предоставляет электронные версии произведений, а занимается лишь коллекционированием и каталогизацией ссылок, присылаемых и публикуемых на форуме нашими читателями. Если вы являетесь правообладателем какого-либо представленного материала и не желаете, чтобы ссылка на него находилась в нашем каталоге, свяжитесь с нами, и мы незамедлительно удалим ее. Файлы для обмена на трекере предоставлены пользователями сайта, и администрация не несет ответственности за их содержание. Просьба не заливать файлы, защищенные авторскими правами, а также файлы нелегального содержания!