Ивановский Торрент трекер
Яндекс.Погода
 

[Цитировать]
HUNTER

Космос: Пространство и время / Cosmos: A SpaceTime Odyssey
Дата/Год выпуска: 2014
Страна: США
Жанр: Документальный, научно-познавательный, природа
Продолжительность: ~ 00:43:00
Перевод: Студийный (одноголосый закадровый)
Доп. инфо о переводе: NG
Русские субтитры: нет
Оригинальная аудиодорожка: нет
Режиссер: Билл Поуп / Bill Pope
Телеканал: NG
Описание: Документальный сериал рассказывает о последних научных открытиях, которые были сделаны в области астронавтики, астрофизики и других наук. Сериал «Космос: Путешествие во времени» является продолжением научно-популярной серии фильмов «Космос: Персональное путешествие с Карлом Саганом» и отражает события последних трех десятилетий. Астрофизик Нил Деграсс Тайсон с соавторами (среди которых вдова Сагана Энн Драйэн) расскажет об открытых законах мира космоса, о возможности межпланетных путешествий и наблюдении за космическими процессами. Все самые сложные понятия представлены с потрясающей четкостью, в повествовании соединяются научная точность и эмоциональность. Трехмерная компьютерная графика, уникальные съемки и использование спецэффектов делают каждый эпизод захватывающим и необычным.
качество: DVB
формат: TS/M2TS
Видео: MPEG2 Video 704x576 (16:9) 25fps Bit rate: 2363 Kbps
Аудио: MPEG Audio 48000Hz stereo 192kbps

MediaInfo

GeneralID : 16 (0x10)Complete name : E:\Downloads\Cosmos.A.SpaceTime.Odyssey.Season.01.DVB\Cosmos.A.SpaceTime.Odyssey.s01e04.DVB.tsFormat : MPEG-TSFile size : 841 MiBDuration : 43mn 42sOverall bit rate mode : VariableOverall bit rate : 2 690 Kbps
VideoID : 331 (0x14B)Menu ID : 3 (0x3)Format : MPEG VideoFormat version : Version 2Format profile : Main@MainFormat settings, BVOP : NoFormat settings, Matrix : CustomFormat settings, GOP : VariableCodec ID : 2Duration : 43mn 43sBit rate mode : VariableBit rate : 2 363 KbpsMaximum bit rate : 3 332 KbpsWidth : 704 pixelsHeight : 576 pixelsDisplay aspect ratio : 16:9Frame rate : 25.000 fpsStandard : PALColor space : YUVChroma subsampling : 4:2:0Bit depth : 8 bitsScan type : InterlacedScan order : Top Field FirstCompression mode : LossyBits/(Pixel*Frame) : 0.233Time code of first frame : 00:00:00:00Time code source : Group of pictures headerStream size : 739 MiB (88%)
AudioID : 332 (0x14C)Menu ID : 3 (0x3)Format : MPEG AudioFormat version : Version 1Format profile : Layer 2Codec ID : 3Duration : 43mn 43sBit rate mode : ConstantBit rate : 192 KbpsChannel count : 2 channelsSampling rate : 48.0 KHzCompression mode : LossyStream size : 60.0 MiB (7%)

Скриншоты анаморф

Скриншоты



Показать сообщения:    

Текущее время: 17-Дек 02:07

Часовой пояс: UTC ± 0


Вы не можете начинать темы
Вы не можете отвечать на сообщения
Вы не можете редактировать свои сообщения
Вы не можете удалять свои сообщения
Вы не можете голосовать в опросах
Вы не можете прикреплять файлы к сообщениям
Вы не можете скачивать файлы

!ВНИМАНИЕ!
Сайт не предоставляет электронные версии произведений, а занимается лишь коллекционированием и каталогизацией ссылок, присылаемых и публикуемых на форуме нашими читателями. Если вы являетесь правообладателем какого-либо представленного материала и не желаете, чтобы ссылка на него находилась в нашем каталоге, свяжитесь с нами, и мы незамедлительно удалим ее. Файлы для обмена на трекере предоставлены пользователями сайта, и администрация не несет ответственности за их содержание. Просьба не заливать файлы, защищенные авторскими правами, а также файлы нелегального содержания!