Ивановский Торрент трекер
Яндекс.Погода
 

[Цитировать]
HUNTER

-Космос: Пространство и время / Cosmos: A SpaceTime Odyssey- -
Дата/Год выпуска: 2014
Страна: США
Жанр: Документальный, научно-познавательный, природа
Продолжительность: 2 x ~ 00:43:47
Перевод: Профессиональный (одноголосый, закадровый) FOX
Русские субтитры: нет-Оригинальная аудиодорожка: английский
Режиссер: Билл Поуп / Bill Pope-Описание: Документальный сериал рассказывает о последних научных открытиях, которые были сделаны в области астронавтики, астрофизики и других наук. Сериал «Космос: Путешествие во времени» является продолжением научно-популярной серии фильмов «Космос: Персональное путешествие с Карлом Саганом» и отражает события последних трех десятилетий. Астрофизик Нил Деграсс Тайсон с соавторами (среди которых вдова Сагана Энн Драйэн) расскажет об открытых законах мира космоса, о возможности межпланетных путешествий и наблюдении за космическими процессами. Все самые сложные понятия представлены с потрясающей четкостью, в повествовании соединяются научная точность и эмоциональность. Трехмерная компьютерная графика, уникальные съемки и использование спецэффектов делают каждый эпизод захватывающим и необычным.-качество: HDTVRip, WEBRip
формат: AVI
Видео: XviD, 720x400 (16:9), 23.976 fps ~1324 kbps, ~0.192 bit/pixel
Аудио 1: MP3, 128 kbps, 48,0 kHz, 2 ch
Аудио 2: MP3, 128 kbps, 48,0 kHz, 2 ch- -Сэмпл / ImDB / Кинопоиск-

MediaInfo

Общее
Полное имя : Cosmos.A.SpaceTime.Odyssey.Season.01\Cosmos.A.SpaceTime.Odyssey.s01e01.HDTVRip.NewStudio.TV.avi
Формат : AVI
Формат/Информация : Audio Video Interleave
Размер файла : 499 Мбайт
Продолжительность : 43 м.
Общий поток : 1594 Кбит/сек
Программа кодирования : VirtualDubMod 1.5.10.2 (build 2540/release)
Библиотека кодирования : VirtualDubMod build 2540/release
Видео
Идентификатор : 0
Формат : MPEG-4 Visual
Профиль формата : Advanced Simple@L5
Параметр BVOP формата : 2
Параметр QPel формата : Нет
Параметр GMC формата : Без точки перехода
Параметр матрицы формата : Default (MPEG)
Идентификатор кодека : XVID
Идентификатор кодека/Подсказка : XviD
Продолжительность : 43 м.
Битрейт : 1324 Кбит/сек
Ширина : 720 пикселей
Высота : 400 пикселей
Соотношение сторон : 16:9
Частота кадров : 23,976 кадра/сек
Цветовое пространство : YUV
Субдискретизация насыщенности : 4:2:0
Битовая глубина : 8 бит
Тип развёртки : Прогрессивная
Метод сжатия : С потерями
Бит/(Пиксели*Кадры) : 0.192
Размер потока : 415 Мбайт (83%)
Библиотека кодирования : XviD 64
Аудио #1
Идентификатор : 1
Формат : MPEG Audio
Версия формата : Version 1
Профиль формата : Layer 3
Режим : Joint stereo
Расширение режима : MS Stereo
Идентификатор кодека : 55
Идентификатор кодека/Подсказка : MP3
Продолжительность : 43 м.
Вид битрейта : Постоянный
Битрейт : 128 Кбит/сек
Каналы : 2 канала
Частота : 48,0 КГц
Метод сжатия : С потерями
Размер потока : 40,1 Мбайт (8%)
Выравнивание : Соединение по промежуткам
Продолжительность промежутка : 42 мс. (1,00 видеокадр)
Время предзагрузки промежутка : 504 мс.
Аудио #2
Идентификатор : 2
Формат : MPEG Audio
Версия формата : Version 1
Профиль формата : Layer 3
Режим : Joint stereo
Расширение режима : MS Stereo
Идентификатор кодека : 55
Идентификатор кодека/Подсказка : MP3
Продолжительность : 43 м.
Вид битрейта : Постоянный
Битрейт : 128 Кбит/сек
Каналы : 2 канала
Частота : 48,0 КГц
Метод сжатия : С потерями
Размер потока : 40,1 Мбайт (8%)
Выравнивание : Соединение по промежуткам
Продолжительность промежутка : 42 мс. (1,00 видеокадр)
Время предзагрузки промежутка : 504 мс.

Список выпусков/серий

01. Standing Up in the Milky Way / Стоя на Млечном Пути
02. Some of the Things That Molecules Do

Скриншоты

Показать сообщения:    

Текущее время: 22-Сен 00:07

Часовой пояс: UTC - 1


Вы не можете начинать темы
Вы не можете отвечать на сообщения
Вы не можете редактировать свои сообщения
Вы не можете удалять свои сообщения
Вы не можете голосовать в опросах
Вы не можете прикреплять файлы к сообщениям
Вы не можете скачивать файлы

!ВНИМАНИЕ!
Сайт не предоставляет электронные версии произведений, а занимается лишь коллекционированием и каталогизацией ссылок, присылаемых и публикуемых на форуме нашими читателями. Если вы являетесь правообладателем какого-либо представленного материала и не желаете, чтобы ссылка на него находилась в нашем каталоге, свяжитесь с нами, и мы незамедлительно удалим ее. Файлы для обмена на трекере предоставлены пользователями сайта, и администрация не несет ответственности за их содержание. Просьба не заливать файлы, защищенные авторскими правами, а также файлы нелегального содержания!