Важное объявление!
У Нас Все раздачи мультитрекерные, при нуле пиров в релизах, можете смело вставать на закачку!
 
Автор Сообщение

HUNTER

Стаж:
4 года 8 месяцев
Сообщений:
62044

Репутация: 101

[+] [-]
Вне форума [Профиль] [ЛС]

Космос говорит по-русски
«Космос говорит по-русски» - документальный фильм о значимости русского языка в развитии космонавтики.
Год выпуска: 2007
Страна: Россия
Телестудия: «Роскосмос»
Режиссер: Дмитрий Свергун
Жанр: Документальный
Продолжительность: 00:26:00
Перевод: Не требуется
Язык: Русский
Описание: 12 апреля 1961 года земляне впервые услышали человеческую речь из космоса, и это был русский язык. С тех пор около ста наших соотечественников выходили в эфир с космических высот, четыре с половиной десятилетия звучит на орбите русская речь.
Несмотря на то, что официальный язык общения на МКС - английский, русский как был, так и остается незаменимым. Сегодня все, кто участвует в международной космической программе, не только астронавты, но и те, кто работает на Земле, изучают русский язык.
В фильме, посвященном Году русского языка, принимают участие известные космонавты, астронавты НАСА и Европейского космического агентства, преподаватели русского языка, долгое время работающие с астронавтами, переводчики. Включены забавные истории и казусы, связанные с поиском взаимопонимания между космонавтами и астронавтами.
Качество: TVRip
Формат: AVI
Видео кодек: DivX
Аудио кодек: MP3
Видео: 720x400 (1.80:1), 23.976 fps, DivX Codec 4.x ~2132 kbps avg, 0.26 bit/pixel
Аудио: 44.100 kHz, MPEG Layer 3, 2 ch, ~128.00 kbps avg

MediaInfo

General
Complete name : C:\rusvera\ruskosmos.avi
Format : AVI
Format/Info : Audio Video Interleave
File size : 423 MiB
Duration : 26mn 0s
Overall bit rate : 2 273 Kbps
Writing application : Lavf52.32.0
Video
ID : 0
Format : MPEG-4 Visual
Format profile : Simple@L1
Format settings, BVOP : No
Format settings, QPel : No
Format settings, GMC : No warppoints
Format settings, Matrix : Default (H.263)
Codec ID : DIVX
Codec ID/Info : Project Mayo
Codec ID/Hint : DivX 4
Duration : 26mn 0s
Bit rate : 2 133 Kbps
Width : 720 pixels
Height : 400 pixels
Display aspect ratio : 4:3
Frame rate : 23.976 fps
Color space : YUV
Chroma subsampling : 4:2:0
Bit depth : 8 bits
Scan type : Progressive
Compression mode : Lossy
Bits/(Pixel*Frame) : 0.26
Stream size : 397 MiB (94%)
Writing library : Lavc52.22.3
Audio
ID : 1
Format : MPEG Audio
Format version : Version 1
Format profile : Layer 3
Mode : Joint stereo
Mode extension : MS Stereo
Codec ID : 55
Codec ID/Hint : MP3
Duration : 26mn 0s
Bit rate mode : Constant
Bit rate : 128 Kbps
Channel(s) : 2 channels
Sampling rate : 44.1 KHz
Compression mode : Lossy
Stream size : 23.8 MiB (6%)
Alignment : Aligned on interleaves
Interleave, duration : 26 ms (0.63 video frame)
Interleave, preload duration : 52 ms

Скриншоты


_________________
Показать сообщения:    

Текущее время: Сегодня 01:11

Часовой пояс: GMT



Вы не можете начинать темы
Вы не можете отвечать на сообщения
Вы не можете редактировать свои сообщения
Вы не можете удалять свои сообщения
Вы не можете голосовать в опросах
Вы не можете прикреплять файлы к сообщениям
Вы не можете скачивать файлы
Наши партнеры: интернет магазин Ивановского трикотажа textilla.ru