Важное объявление!
У Нас Все раздачи мультитрекерные, при нуле пиров в релизах, можете смело вставать на закачку!
 
Автор Сообщение

HUNTER

Стаж:
4 года 6 месяцев
Сообщений:
60970

Репутация: 101

[+] [-]
Вне форума [Профиль] [ЛС]

Космонавтика и астрономия
Дата/Год выпуска: 1990
Страна: СССР
Жанр: Научно-популярный, космос
Продолжительность: 00:19:55
Перевод: Не требуется
Режиссер: Н. Романова
Описание: В картине уделено внимание исследованиям планет Солнечной системы и звёзд космическими аппаратами и телескопами, как советскими, так и зарубежными.
качество: WEBRip
формат: AVI
Видео: Xvid 512x384 25fps 957kbps
Аудио: mp3 128kbps 2ch 48000khz

MediaInfo

GeneralComplete name : C:\Documents and Settings\Администратор\Мои документы\Космонавтика и астрономия (1990).aviFormat : AVIFormat/Info : Audio Video InterleaveFile size : 156 MiBDuration : 19mn 54sOverall bit rate : 1 095 KbpsWriting application : VirtualDubMod 1.5.10.3 | www.virtualdub-fr.org || (build 2550/release)Writing library : VirtualDubMod build 2550/release
VideoID : 0Format : MPEG-4 VisualFormat profile : Simple@L1Format settings, BVOP : NoFormat settings, QPel : NoFormat settings, GMC : No warppointsFormat settings, Matrix : Default (H.263)Codec ID : XVIDCodec ID/Hint : XviDDuration : 19mn 54sBit rate : 957 KbpsWidth : 512 pixelsHeight : 384 pixelsDisplay aspect ratio : 4:3Frame rate : 25.000 fpsColor space : YUVChroma subsampling : 4:2:0Bit depth : 8 bitsScan type : ProgressiveCompression mode : LossyBits/(Pixel*Frame) : 0.195Stream size : 136 MiB (87%)Writing library : Lavc52.41.0
AudioID : 1Format : MPEG AudioFormat version : Version 1Format profile : Layer 3Codec ID : 55Codec ID/Hint : MP3Duration : 19mn 54sBit rate mode : ConstantBit rate : 128 KbpsChannel(s) : 2 channelsSampling rate : 48.0 KHzCompression mode : LossyStream size : 18.2 MiB (12%)Alignment : Aligned on interleavesInterleave, duration : 40 ms (1.00 video frame)Interleave, preload duratio : 504 msWriting library : LAME3.99rEncoding settings : -m s -V 4 -q 2 -lowpass 17 -b 128

Скриншоты


_________________
Показать сообщения:    

Текущее время: Сегодня 01:48

Часовой пояс: GMT



Вы не можете начинать темы
Вы не можете отвечать на сообщения
Вы не можете редактировать свои сообщения
Вы не можете удалять свои сообщения
Вы не можете голосовать в опросах
Вы не можете прикреплять файлы к сообщениям
Вы не можете скачивать файлы
Наши партнеры: интернет магазин Ивановского трикотажа textilla.ru