Космический трансформер / Микро-коммандосы Даитрон-5 / Space Transformer / Micro teukgongdae Daiyateuron 5 (Су-ёнг Джонг) [1985, Рисованная анимация, фантастика, DVDRip] VO (Трамвай фильм) + Rus Sub :: Ивановский Торрент трекер
Важное объявление!
У Нас Все раздачи мультитрекерные, при нуле пиров в релизах, можете смело вставать на закачку!
Статистика раздачи
Размер:     |    Зарегистрирован:     |    Скачан:     |   
Нет
 
     
 
 
Автор Сообщение

HUNTER

Стаж:
4 года 11 месяцев
Сообщений:
66066

Репутация: 101

[+] [-]
Вне форума [Профиль] [ЛС]

Космический трансформер / Микро-коммандосы Даитрон-5 / Space Transformer / Micro teukgongdae Daiyateuron 5
Страна: IFD Films
Жанр: Рисованная анимация, фантастика
Продолжительность: 00:57:19
Год выпуска: 1985
Перевод: Одноголосый закадровый (Трамвай фильм)
Русские субтитры: есть
Режиссёр: Су-ёнг Джонг / Su-yong Jeong
Описание: Ужасная инфекция, в виде зеленых гоблинов, заражает Айви, девушки, координирущую космическую оборону Земли, теперь что бы спасти мир от опасности в её тело отправляют лучших бойцов и боевых роботов
Доп. информация: Этот мультфильм так же выходил как "Микро-коммандосы Даитрон-5", но для мирового проката был издан как "Космический трансформер"
Семпл: http://multi-up.com/1020677

Качество: DVDRip
Формат: MKV
Видео: Xvid, 720x480, 29.97fps, 652 Kbps
Аудио: MP3, 44100Hz, stereo, 128 kbps, 2 канала [перевод [rus]]
Аудио 2: MP3, 48000Hz, stereo, 80 kbps, 2 канала [оригинал [eng]]
Субтитры: Русские, комментарии автора к мультфильму (отключаемые)

Подробные технические данные

VideoID : 1Format : MPEG-4 VisualFormat profile : Advanced Simple@L5Format settings, BVOP : YesFormat settings, QPel : NoFormat settings, GMC : No warppointsFormat settings, Matrix : Default (H.263)Codec ID : V_MS/VFW/FOURCC / XVIDCodec ID/Hint : XviDBit rate : 652 KbpsWidth : 720 pixelsHeight : 480 pixelsDisplay aspect ratio : 3:2Frame rate mode : VariableOriginal frame rate : 29.970 fpsStandard : NTSCColor space : YUVChroma subsampling : 4:2:0Bit depth : 8 bitsScan type : ProgressiveCompression mode : LossyWriting library : XviD 1.2.1 (UTC 2008-12-04)Default : YesForced : No
Audio #1ID : 2Format : MPEG AudioFormat version : Version 1Format profile : Layer 3Muxing mode : Header strippingCodec ID : A_MPEG/L3Codec ID/Hint : MP3Duration : 57mn 18sBit rate mode : ConstantBit rate : 128 KbpsChannel(s) : 2 channelsSampling rate : 44.1 KHzCompression mode : LossyStream size : 52.5 MiB (15%)Title : переводWriting library : LAME3.99rEncoding settings : -m s -V 4 -q 3 -lowpass 17 -b 128Language : RussianDefault : YesForced : Yes
Audio #2ID : 3Format : MPEG AudioFormat version : Version 1Format profile : Layer 3Mode : Joint stereoMode extension : MS StereoMuxing mode : Header strippingCodec ID : A_MPEG/L3Codec ID/Hint : MP3Duration : 57mn 19sBit rate mode : ConstantBit rate : 80.0 KbpsChannel(s) : 2 channelsSampling rate : 48.0 KHzCompression mode : LossyStream size : 32.8 MiB (9%)Title : оригиналLanguage : EnglishDefault : NoForced : No
TextID : 4Format : UTF-8Codec ID : S_TEXT/UTF8Codec ID/Info : UTF-8 Plain TextDefault : YesForced : No

Скриншоты


_________________
Показать сообщения:    

Текущее время: Сегодня 19:11

Часовой пояс: GMT



Вы не можете начинать темы
Вы не можете отвечать на сообщения
Вы не можете редактировать свои сообщения
Вы не можете удалять свои сообщения
Вы не можете голосовать в опросах
Вы не можете прикреплять файлы к сообщениям
Вы не можете скачивать файлы