Космический Денди 2 / Space Dandy 2 (Ватанабэ Синъитиро) [TV] [1 из 12] [Без хардсаба] [JAP+SUB] [2014 г., приключения, комедия, фантастика, HDTVRip] [720p] :: Ивановский Торрент трекер
Важное объявление!
У Нас Все раздачи мультитрекерные, при нуле пиров в релизах, можете смело вставать на закачку!
Статистика раздачи
Размер:     |    Зарегистрирован:     |    Скачан:     |   
Нет
 
     
 
 
Автор Сообщение

HUNTER

Стаж:
4 года 11 месяцев
Сообщений:
66054

Репутация: 101

[+] [-]
Вне форума [Профиль] [ЛС]

-Космический Денди 2 / Space Dandy 2-

Год выпуска: 2014
Страна: Япония
Жанр: приключения, комедия, фантастика
Тип: TV
Продолжительность: 12 эп. по 24 мин.
Cубтитры: ASS (внешние) от [Timecraft + Reaper + Ambiente]
Перевод: Рипер | Алекс Миф
Редактирование: Алекс Миф | Рипер
QC и оформление: BO3DYX-Режиссер: Ватанабэ Синъитиро
Студия: BONES-Описание:Денди, просто Денди - пижон, стиляга, бабник и показушник, то есть самый крутой парень ближнего, а заодно и дальнего космоса! Он молод, брутален, неотразим и всегда готов к приключениям. Но даже супермену надо платить за выпивку, заправлять корабль и чинить древнего робота QT. Без транспорта и помощника нельзя охотиться на редкие формы разумной жизни, а неизвестных видов во Вселенной с каждым годом все меньше. Охотник Денди, конечно, талантливый, но повелитель мрачной Гогольской империи считает, что его личный враг способен на большее!
А пока темные силы лелеют зловещие планы, Денди с новым напарником по кличке Мяу (настоящее имя выговорить все равно невозможно) прочесывают галактики в погоне за Синей птицей удачи. Попробовать лучший в мире рамэн, вычислить монстра-убийцу, победить зомби – для команды друзей нет ничего невозможного. Экипаж знаменитого корабля «Алоха Оэ» - последние романтики космоса, ибо их ведет высокая цель. Ведь если не будешь крутиться – не на что будет гульнуть с размахом в любимой сети ресторанов «Сис-Ки»!
© Hollow, World Art-Информационные ссылки: AniDB || World Art ||MAL-Качество: HDTVRip
Тип релиза: без хардсаба
Релиз/Автор рипа: [Leopard-Raws]
Формат: MP4
Видео: H.264; 1280x720; 2 841 Kbps, 23.976 fps (8 bit)
Аудио: JAP, AAC; 48.0 KHz; 192 Kbps (2ch)-

Список эпизодов
01. I Can`t Be the Only One, Baby

MI

General
Complete name : D:\Видео\Аниме\HD\Space Dandy 2\[Leopard-Raws] Space Dandy 2 - 01 RAW (MX 1280x720 x264 AAC).mp4
Format : MPEG-4
Format profile : Base Media
Codec ID : isom
File size : 532 MiB
Duration : 24mn 29s
Overall bit rate mode : Variable
Overall bit rate : 3 036 Kbps
Encoded date : UTC 2014-07-06 17:45:19
Tagged date : UTC 2014-07-06 17:45:19
Video
ID : 1
Format : AVC
Format/Info : Advanced Video Codec
Format profile : High@L4.1
Format settings, CABAC : Yes
Format settings, ReFrames : 4 frames
Codec ID : avc1
Codec ID/Info : Advanced Video Coding
Duration : 24mn 29s
Bit rate : 2 841 Kbps
Maximum bit rate : 30.7 Mbps
Width : 1 280 pixels
Height : 720 pixels
Display aspect ratio : 16:9
Frame rate mode : Constant
Frame rate : 23.976 fps
Color space : YUV
Chroma subsampling : 4:2:0
Bit depth : 8 bits
Scan type : Progressive
Bits/(Pixel*Frame) : 0.129
Stream size : 498 MiB (94%)
Title : 264:fps=23.976@GPAC0.5.1-DEV-rev4283
Writing library : x264 core 129 r2245+729M 1a52e03
Encoding settings : cabac=1 / ref=4 / deblock=1:1:-1 / analyse=0x3:0x113 / me=umh / subme=9 / psy=1 / fade_compensate=0.00 / psy_rd=1.00:0.00 / mixed_ref=1 / me_range=24 / chroma_me=1 / trellis=2 / 8x8dct=1 / cqm=0 / deadzone=21,11 / fast_pskip=1 / chroma_qp_offset=-2 / threads=8 / lookahead_threads=1 / sliced_threads=0 / nr=0 / decimate=1 / interlaced=0 / bluray_compat=0 / constrained_intra=0 / fgo=0 / bframes=9 / b_pyramid=2 / b_adapt=2 / b_bias=0 / direct=1 / weightb=1 / open_gop=0 / weightp=2 / keyint=240 / keyint_min=24 / scenecut=40 / intra_refresh=0 / rc=crf / mbtree=0 / crf=18.5 / qcomp=0.72 / qpmin=0 / qpmax=69 / qpstep=4 / ip_ratio=1.40 / pb_ratio=1.30 / aq=1:0.85
Encoded date : UTC 2014-07-06 17:45:19
Tagged date : UTC 2014-07-06 17:45:24
Color primaries : BT.709
Transfer characteristics : BT.709
Matrix coefficients : BT.709
Audio
ID : 2
Format : AAC
Format/Info : Advanced Audio Codec
Format profile : LC
Codec ID : 40
Duration : 24mn 29s
Bit rate mode : Variable
Bit rate : 192 Kbps
Maximum bit rate : 225 Kbps
Channel count : 2 channels
Channel positions : Front: L R
Sampling rate : 48.0 KHz
Compression mode : Lossy
Stream size : 33.6 MiB (6%)
Language : Japanese
Encoded date : UTC 2014-07-06 14:52:03
Tagged date : UTC 2014-07-06 17:45:24

Скриншоты


_________________
Показать сообщения:    

Текущее время: Сегодня 02:03

Часовой пояс: GMT



Вы не можете начинать темы
Вы не можете отвечать на сообщения
Вы не можете редактировать свои сообщения
Вы не можете удалять свои сообщения
Вы не можете голосовать в опросах
Вы не можете прикреплять файлы к сообщениям
Вы не можете скачивать файлы