Важное объявление!
У Нас Все раздачи мультитрекерные, при нуле пиров в релизах, можете смело вставать на закачку!
 
Автор Сообщение

HUNTER

Стаж:
4 года 6 месяцев
Сообщений:
60975

Репутация: 101

[+] [-]
Вне форума [Профиль] [ЛС]

Космический аппарат Е-1
Дата/Год выпуска: 1959
Страна: СССР
Жанр: документальный
Продолжительность: 00:15:17
Перевод: Не требуется
Описание: Фильм про устройство и пуск первого лунного аппарата
Доп. информация: фильм секретный,режиссер скрыт
качество: TVRip
формат: AVI
Видео: Xvid 576x464 25fps 694 Kbps
Аудио: MP3 48000Hz stereo 128kbps
MediaInfo
GeneralComplete name : C:\Video\АМС Луна 1 (Е-1).aviFormat : AVIFormat/Info : Audio Video InterleaveFile size : 90.9 MiBDuration : 15mn 17sOverall bit rate : 832 KbpsWriting application : VirtualDubMod 1.5.10.3 | www.virtualdub-fr.org || (build 2550/release)Writing library : VirtualDubMod build 2550/release
VideoID : 0Format : MPEG-4 VisualFormat profile : Advanced Simple@L5Format settings, BVOP : 1Format settings, QPel : NoFormat settings, GMC : No warppointsFormat settings, Matrix : Default (H.263)Codec ID : XVIDCodec ID/Hint : XviDDuration : 15mn 17sBit rate : 694 KbpsWidth : 576 pixelsHeight : 464 pixelsDisplay aspect ratio : 5:4Frame rate : 25.000 fpsColor space : YUVChroma subsampling : 4:2:0Bit depth : 8 bitsScan type : ProgressiveCompression mode : LossyBits/(Pixel*Frame) : 0.104Stream size : 75.9 MiB (83%)Writing library : XviD 1.2.1 (UTC 2008-12-04)
AudioID : 1Format : MPEG AudioFormat version : Version 1Format profile : Layer 3Mode : Joint stereoMode extension : MS StereoCodec ID : 55Codec ID/Hint : MP3Duration : 15mn 17sBit rate mode : ConstantBit rate : 128 KbpsChannel count : 2 channelsSampling rate : 48.0 KHzCompression mode : LossyStream size : 14.0 MiB (15%)Alignment : Aligned on interleavesInterleave, duration : 40 ms (1.00 video frame)Interleave, preload duration : 504 msWriting library : LAME3.99rEncoding settings : -m j -V 4 -q 7 -lowpass 17 -b 128
Скриншоты

_________________
Показать сообщения:    

Текущее время: Сегодня 13:44

Часовой пояс: GMT



Вы не можете начинать темы
Вы не можете отвечать на сообщения
Вы не можете редактировать свои сообщения
Вы не можете удалять свои сообщения
Вы не можете голосовать в опросах
Вы не можете прикреплять файлы к сообщениям
Вы не можете скачивать файлы
Наши партнеры: интернет магазин Ивановского трикотажа textilla.ru