Важное объявление!
У Нас Все раздачи мультитрекерные, при нуле пиров в релизах, можете смело вставать на закачку!
Статистика раздачи
Размер:     |    Зарегистрирован:     |    Скачан:     |   
Нет
 
     
 
 
Автор Сообщение

HUNTER

Стаж:
5 лет
Сообщений:
68390

Репутация: 101

[+] [-]
Вне форума [Профиль] [ЛС]

Космические спасатели лейтенанта Марша / ExoSquad-
Год выпуска: 1993-1994
Страна: США
Жанр: научная фантастика, приключения
Продолжительность: 00:21:00
Кол-во эпизодов: 52
Перевод: дублированный («Селена Интернэшнл», по заказу ОРТ)
Субтитры: отсутствуют-Студия: Universal Cartoon Studios
Режиссёр: Грэхэм Моррис / Graham Morris-Описание:
Действие происходит в 22-м веке. Человечество искусственным путём создало новую расу людей (неосапианты). Их эксплуатировали как рабов, но после кровавых восстаний и межпланетных войн наделили равными правами. Люди колонизировали Марс и Венеру, и с помощью создания нового почвенного покрова, сделали условия на этих планетах пригодными для проживания. В центре сюжета вторая война между людьми и неосапиантами. Основные действующие лица — бойцы людского космического флота.-Качество: DVDRip (Сезон1)
Формат: AVI
Видео: XviD, 512x384, 983Kbps, 23.976fps
Аудио#1: RUS - MP3, 44.1KHz, 2ch, 192Kbps
Аудио#2: Eng - MP3, 44.1KHz, 2ch, 128Kbps
Качество: SATRip (Сезон2)
Формат: AVI
Видео: XviD, 640x480, 1.897KbpsKbps, 25.000fps
Аудио: RUS - MP3, 44.1KHz, 2ch, 192Kbps-

Эпизоды

Сезон1
01.Пиратский бич (англ. Pirate Scourge)
02.Зёрна Обмана (англ. Seeds of Deception)
03.Скрытые опасности (англ. Hidden Terrors)
04.Блицкриг (англ. Blitzkrieg)
05.Сопротивление! (англ. Resist!)
06.Цель: Земля (англ. Target: Earth)
07.Среди нас предатель (англ. A Traitor Among Us)
08.Обожжённая Венера (англ. Scorched Venus)
09.Диверсия (англ. Sabotage)
10.Покинутые (англ. Abandoned!)
11.Последний бой Резолюта (англ. The Brood)
12.Предательство (англ. Betrayal)
13.Бросая вызов Олимпу (англ. Defying Olympus)
Сезон2
14.Встреча (англ. The Gathering)
15.Посланцы (англ. The Embassy)
16.Пиратский выкуп (англ. Pirates Ransom)
17.Абсолютное оружие (англ. Ultimate Weapon)
18.Двойник (англ. Expendable)
19.Заблуждение (англ. Mind Set)
20.Последний человек (англ. The Last Man)
21.Драконья скала (англ. Dragon's Rock)
22.В плену у тьмы (англ. Inner Dark)
23.Псы войны (англ. The Docs of War)
24.Первый шаг (англ. The First Step)
25.Самый жуткий кошмар (англ. The Greatest Fear)
26.В чужой шкуре (англ. Flesh Crawls)
27.За щитом (англ. Behind The Shield)
28.Восставшая Венера (англ. Venus Rising)
29.Чудо (англ. Miracle)
30.Под чужой личиной (англ. Under The Skin)
31.Ультиматум (англ. Ultimatum)
32.Племя войны (англ. Warrior Brood)
33.Война снов (англ. The Dream War)
34.Ни шагу назад (англ. No Surrender)
35.Огненный корабль (англ. Fire Ship)
36.Марсианская удача (англ. Martian Luck)
37.Затерянный отряд (англ. The Lost Patrol)
38.Зов неизведанного (англ. Call of the Unknown)
39.В самом сердце Марса (англ. Heart of Mars)
40.Крылатая ярость (англ. Winged Fury)
41.Ночь предателя (англ. Night of the Traitor)
42.Испытание боем (англ. Trial by Combat)
43.Идеальный солдат (англ. The Perfect Warrior)
44.Цена доблести (англ. The Price of Courage)
45.Тёмная река (англ. Dark River)
46.Военное искусство (англ. The Art of War)
47.Крах Неосапиантской Империи, часть1 (англ. The Fall of The Neosapien Empire Part1)
48.Крах Неосапиантской Империи, часть2 (англ. The Fall of The Neosapien Empire Part2)
49.Крах Неосапиантской Империи, часть3 (англ. The Fall of The Neosapien Empire Part3)
50.Крах Неосапиантской Империи, часть4 (англ. The Fall of The Neosapien Empire Part4)
51.Крах Неосапиантской Империи, часть5 (англ. The Fall of The Neosapien Empire Part5)
52.За гранью Хаоса (англ. Beyond Chaos)

Доп. информация

Рецензия с КиноПоиска

еще постеры

Звуковой ряд ко всем сериям записан со спутниковых трансляций по телеканалу ТВ3. Первый сезон полностью в качестве DVDRip, второй - SATRip'ы с канала ТВ3. Релиз-группа выражает благодарность MIKEL, utas, viktor1986t, ALEKS_KV, manhunt, SergoLeone и ElmoSP за помощь в записи мультсериала.

MediaInfo

1ая серия

Код: copyText_writeLink('this.parentNode.parentNode.nextSibling.nextSibling');
General
Complete name : Season 1\1. Pirate Scourge.avi
Format : AVI
Format/Info : Audio Video Interleave
File size : 204 MiB
Duration : 21mn 38s
Overall bit rate : 1 317 Kbps
Writing application : VirtualDubModRus 1.5.10.2 (build 2542/release)
Writing library : VirtualDubMod build 2542/release
Video
ID : 0
Format : xvid
Codec ID : xvid
Duration : 21mn 38s
Bit rate : 983 Kbps
Width : 512 pixels
Height : 384 pixels
Display aspect ratio : 4:3
Frame rate : 23.976 fps
Bits/(Pixel*Frame) : 0.209
Stream size : 152 MiB (75%)
Audio #1
ID : 1
Format : MPEG Audio
Format version : Version 1
Format profile : Layer 3
Codec ID : 55
Codec ID/Hint : MP3
Duration : 21mn 38s
Bit rate mode : Constant
Bit rate : 192 Kbps
Channel(s) : 2 channels
Sampling rate : 44.1 KHz
Compression mode : Lossy
Stream size : 29.7 MiB (15%)
Alignment : Split accross interleaves
Interleave, duration : 42 ms (1.00 video frame)
Interleave, preload duration : 500 ms
Audio #2
ID : 2
Format : MPEG Audio
Format version : Version 1
Format profile : Layer 3
Codec ID : 55
Codec ID/Hint : MP3
Duration : 21mn 38s
Bit rate mode : Constant
Bit rate : 128 Kbps
Channel(s) : 2 channels
Sampling rate : 44.1 KHz
Compression mode : Lossy
Stream size : 19.8 MiB (10%)
Alignment : Split accross interleaves
Interleave, duration : 42 ms (1.00 video frame)
Interleave, preload duration : 500 ms

14ая серия

Код: copyText_writeLink('this.parentNode.parentNode.nextSibling.nextSibling');
General
Complete name : Season 2\14. The Gathering.avi
Format : AVI
Format/Info : Audio Video Interleave
File size : 333 MiB
Duration : 22mn 12s
Overall bit rate : 2 099 Kbps
Writing application : VirtualDubModRus 1.5.10.2 (build 2542/release)
Writing library : VirtualDubMod build 2542/release
Video
ID : 0
Format : MPEG-4 Visual
Format profile : Advanced Simple@L5
Format settings, BVOP : 1
Format settings, QPel : No
Format settings, GMC : No warppoints
Format settings, Matrix : Custom
Codec ID : XVID
Codec ID/Hint : XviD
Duration : 22mn 12s
Bit rate : 1 897 Kbps
Width : 640 pixels
Height : 480 pixels
Display aspect ratio : 4:3
Frame rate : 25.000 fps
Color space : YUV
Chroma subsampling : 4:2:0
Bit depth : 8 bits
Scan type : Progressive
Compression mode : Lossy
Bits/(Pixel*Frame) : 0.247
Stream size : 301 MiB (90%)
Writing library : XviD 1.1.0 (UTC 2005-11-22)
Audio
ID : 1
Format : MPEG Audio
Format version : Version 1
Format profile : Layer 3
Codec ID : 55
Codec ID/Hint : MP3
Duration : 22mn 12s
Bit rate mode : Constant
Bit rate : 192 Kbps
Channel(s) : 2 channels
Sampling rate : 44.1 KHz
Compression mode : Lossy
Stream size : 30.5 MiB (9%)
Alignment : Split accross interleaves
Interleave, duration : 40 ms (1.00 video frame)
Interleave, preload duration : 500 ms
-

Вступительные титры + кусок 1ой серии на Ютубе (без перевода) (Exosquad - Opening #1 (High Quality)

(Вступительные титры) Космические спасатели лейтенанта Марша http://clipiki.ru/video/232652-

Скриншоты

-

_________________
Показать сообщения:    

Текущее время: Сегодня 15:21

Часовой пояс: GMT



Вы не можете начинать темы
Вы не можете отвечать на сообщения
Вы не можете редактировать свои сообщения
Вы не можете удалять свои сообщения
Вы не можете голосовать в опросах
Вы не можете прикреплять файлы к сообщениям
Вы не можете скачивать файлы