Ивановский Торрент трекер
Яндекс.Погода
 

[Цитировать]
HUNTER

Корпорация монстров / Monsters, Inc. / Full Screen- Страна: США, Walt Disney
Жанр: фэнтези, комедия, семейный, мультфильм
Продолжительность: 01:32:10
Год выпуска: 2001
Перевод: Профессиональный (многоголосый закадровый)
Русские субтитры: есть-Режиссёр: Пит Доктер, Дэвид Силверман, Ли Анкрич / Pete Docter, David Silverman, Lee Unkrich-Роли озвучивали: Джон Гудмен, Билли Кристал, Мэри Гиббс, Стив Бушеми, Джеймс Коберн, Дженнифер Тилли, Боб Питерсон, Джон Ратценбергер, Фрэнк Оз, Дэниэл Джерсон, Стив Сусскинд, Бонни Хант, Джефф Пиджон, Сэмюэл Лорд Блэк, Джек Эйнджел, Боб Берген, Роджер Бампасс, Джино Конфорти-Описание:
Склизский гад в сливном бачке, мохнатый зверь, похожий на чудовище из «Аленького цветочка», гигантские мокрицы под кроватью - все они существуют на самом деле. Все, что им нужно - пугать детей, потому что из детских криков они получают электричество.
Полнометражный мультфильм рассказыает о кризисах в мире монстров, их жизни. Но однажды вся мирная жизнь монстров оказывается под угрозой: в их мир попадает ребенок. А с детьми столько хлопот, что они могут довести даже монстров.-Раздается мой рип только ввиду уникальности перевода, это самый первый МВО что вышел на "типа ~Лицензионном ДВД". Перевод очень хорош, все остальные просто тихо завидуют темной и жгучей завистью.
P.S. Рип кодировался во времена царя гороха, этого диска уже нет, так что - что имеем, тем и делимся.-Семпл: http://multi-up.com/1030668-Качество: DVDRip
Формат: MKV
Видео: DivX 5 720x540 23.976fps 1144 Kbps
Русский Многоголосый закадровый: MPEG Audio 48000Hz stereo 256kbps
Английский: MPEG Audio 48000Hz stereo 256kbps
Субтитры: Русские (внешние) - SUB, Английские (внешние) - SUB

Подробные технические данные

GeneralUnique ID : 244049825547783543390332287126614345008 (0xB79A4964CF7B225D97A9FECB30008530)Complete name : D:\Video\Monsters_Inc_RUS_MVO_ENG_SUB_(RUS+ENG)_Full_Screen_DVDRip_DivX\Monsters_Inc_RUS_MVO_ENG_SUB_(RUS+ENG)_Full_Screen_DVDRip_DivX.mkvFormat : MatroskaFormat version : Version 4 / Version 2File size : 1.09 GiBDuration : 1h 32mnOverall bit rate : 1 690 KbpsEncoded date : UTC 2015-02-02 12:00:30Writing application : mkvmerge v7.4.0 ('Circles') 32bit built on Dec 12 2014 12:10:09Writing library : libebml v1.3.0 + libmatroska v1.4.1DURATION : 01:32:10.128000000NUMBER_OF_FRAMES : 230422NUMBER_OF_BYTES : 176964096_STATISTICS_WRITING_APP : mkvmerge v7.4.0 ('Circles') 32bit built on Dec 12 2014 12:10:09_STATISTICS_WRITING_DATE_UTC : 2015-02-02 12:00:30_STATISTICS_TAGS : BPS DURATION NUMBER_OF_FRAMES NUMBER_OF_BYTESAttachment : Yes / Yes
VideoID : 1Format : MPEG-4 VisualFormat settings, BVOP : YesFormat settings, QPel : NoFormat settings, GMC : 2 warppointsFormat settings, Matrix : Default (H.263)Codec ID : V_MS/VFW/FOURCC / DX50Codec ID/Hint : DivX 5Duration : 1h 32mnBit rate : 1 144 KbpsWidth : 720 pixelsHeight : 540 pixelsDisplay aspect ratio : 4:3Frame rate mode : ConstantFrame rate : 23.976 fpsColor space : YUVChroma subsampling : 4:2:0Bit depth : 8 bitsScan type : ProgressiveCompression mode : LossyBits/(Pixel*Frame) : 0.123Stream size : 754 MiB (68%)Title : Monsters Inc Full Screen DVDRip DivX 720x540Writing library : DivX 5.0.5 (UTC 2003-04-24)Language : EnglishDefault : YesForced : Yes
Audio #1ID : 2Format : MPEG AudioFormat version : Version 1Format profile : Layer 2Codec ID : A_MPEG/L2Codec ID/Hint : MP2Duration : 1h 32mnBit rate mode : ConstantBit rate : 256 KbpsChannel count : 2 channelsSampling rate : 48.0 KHzCompression mode : LossyStream size : 169 MiB (15%)Title : RUS MVO Licenziya MP2 48KHz 256kbps Stereo 2chLanguage : RussianDefault : YesForced : Yes
Audio #2ID : 3Format : MPEG AudioFormat version : Version 1Format profile : Layer 2Codec ID : A_MPEG/L2Codec ID/Hint : MP2Duration : 1h 32mnBit rate mode : ConstantBit rate : 256 KbpsChannel count : 2 channelsSampling rate : 48.0 KHzCompression mode : LossyStream size : 169 MiB (15%)Title : ENG Licenziya MP2 48KHz 256kbps Stereo 2chLanguage : EnglishDefault : NoForced : No

Скриншоты

Сравнение моего рипа с ДВД-9/5 (тут на трекере) и БД:

На ДВД мультфильм нехило обрезан (тот что на трекере ДВД-9/5), а вот на Блю Рай вышло вполне нормальное издание + добавили по бокам.
Показать сообщения:    

Текущее время: 22-Сен 14:27

Часовой пояс: UTC - 1


Вы не можете начинать темы
Вы не можете отвечать на сообщения
Вы не можете редактировать свои сообщения
Вы не можете удалять свои сообщения
Вы не можете голосовать в опросах
Вы не можете прикреплять файлы к сообщениям
Вы не можете скачивать файлы

!ВНИМАНИЕ!
Сайт не предоставляет электронные версии произведений, а занимается лишь коллекционированием и каталогизацией ссылок, присылаемых и публикуемых на форуме нашими читателями. Если вы являетесь правообладателем какого-либо представленного материала и не желаете, чтобы ссылка на него находилась в нашем каталоге, свяжитесь с нами, и мы незамедлительно удалим ее. Файлы для обмена на трекере предоставлены пользователями сайта, и администрация не несет ответственности за их содержание. Просьба не заливать файлы, защищенные авторскими правами, а также файлы нелегального содержания!