Ивановский Торрент трекер
Яндекс.Погода
 

[Цитировать]
димитри37

Коротышка / Смешной размер / Fun Size-«Some people just can't handle halloween»- Страна: США
Жанр: комедия
Год выпуска: 2012
Продолжительность: 01:22:51-Перевод: Профессиональный (дублированный)
Cубтитры: нет
Оригинальная аудиодорожка: нет-Режиссер: Джош Шварц / Josh Schwartz
В ролях: Виктория Джастис, Томас Манн, Челси Хэндлер, Джексон Николл, Джошуа Пенс, Джейн Леви, Томас МакДонелл, Кэрри Клиффорд, Бэрри Ливингстон, Эли Бардха-Описание: Фильм, который укладывается в одну ночь, расскажет историю девушки-подростка, которая теряет своего маленького братика на Хэллоуин. Звезда школьной команды политических дебатов, в которого будет влюблена героиня, поможет ей в поисках брата.- -Качество видео: DVDRip
Формат видео: AVI-Видео: 640x256 (2.50:1), 25 fps, XviD MPEG-4 ~1119 kbps avg, 0.27 bit/pixel
Аудио: Russian (48 kHz, MPEG Layer 3, 2 ch, ~128.00 kbps avg)

MediaInfo

Общее
Полное имя : F:Korotyshka.2012.D.DVDRip.avi
Формат : AVI
Формат/Информация : Audio Video Interleave
Размер файла : 745 Мбайт
Продолжительность : 1 ч. 22 м.
Общий поток : 1257 Кбит/сек
Название фильма : Korotyshka.2012.D.DVDRip
Режиссёр : Modepido
Программа кодирования : VirtualDubModRus 1.5.10.2 (build 2542/release)
Видео
Идентификатор : 0
Формат : MPEG-4 Visual
Профиль формата : Advanced Simple@L5
Параметр BVOP формата : 1
Параметр QPel формата : Нет
Параметр GMC формата : Без точки перехода
Параметр матрицы формата : Выборочная
Идентификатор кодека : DX50
Идентификатор кодека/Подсказка : DivX 5
Продолжительность : 1 ч. 22 м.
Битрейт : 1119 Кбит/сек
Ширина : 640 пикс.
Высота : 256 пикс.
Соотношение сторон : 2,500
Частота кадров : 25,000 кадр/сек
Цветовое пространство : YUV
Подвыборка цветности : 4:2:0
Битовая глубина : 8 бит
Тип развёртки : Прогрессивная
Метод сжатия : С потерями
Бит/(Пиксели*Кадры) : 0.273
Размер потока : 663 Мбайт (89%)
Библиотека кодирования : XviD 73
Аудио
Идентификатор : 1
Формат : MPEG Audio
Версия формата : Version 1
Профиль формата : Layer 3
Режим : Joint stereo
Расширение режима : MS Stereo
Идентификатор кодека : 55
Идентификатор кодека/Подсказка : MP3
Продолжительность : 1 ч. 22 м.
Вид битрейта : Постоянный
Битрейт : 128 Кбит/сек
Каналы : 2 канала
Частота : 48,0 КГц
Метод сжатия : С потерями
Задержка видео : 480 мс.
Размер потока : 75,9 Мбайт (10%)
Выравнивание : Соединение по промежуткам
Продолжительность промежутка : 40 мс. (1,00 видеокадр)
Время предзагрузки промежутка : 504 ms

Скриншот c названием фильма

Скриншоты

Показать сообщения:    

Текущее время: 17-Окт 14:22

Часовой пояс: UTC - 1


Вы не можете начинать темы
Вы не можете отвечать на сообщения
Вы не можете редактировать свои сообщения
Вы не можете удалять свои сообщения
Вы не можете голосовать в опросах
Вы не можете прикреплять файлы к сообщениям
Вы не можете скачивать файлы

!ВНИМАНИЕ!
Сайт не предоставляет электронные версии произведений, а занимается лишь коллекционированием и каталогизацией ссылок, присылаемых и публикуемых на форуме нашими читателями. Если вы являетесь правообладателем какого-либо представленного материала и не желаете, чтобы ссылка на него находилась в нашем каталоге, свяжитесь с нами, и мы незамедлительно удалим ее. Файлы для обмена на трекере предоставлены пользователями сайта, и администрация не несет ответственности за их содержание. Просьба не заливать файлы, защищенные авторскими правами, а также файлы нелегального содержания!