Ивановский Торрент трекер
Яндекс.Погода
 

[Цитировать]
Savaris

-Король Шаман / Шаман Кинг / Shaman King- Японское название: Shaman King
Русские названия: Шаман Кинг, Король Шаман
Год выпуска: 2001.
Страна: Япония.
Жанр: Приключения, комедия, мистика, сёнэн.
Продолжительность: ТВ (64 эп.), 25 мин.
Перевод: Профессиональный (полное дублирование) + Одноголосный + Оригинальный
Субтитры: русские, от Anime Desu FanSub (01-42), Лось (43-45), Dez (46,47,56-64), Strelok (48-54), Fumo (55)-Режиссер: Мидзусима Сэйдзи-Описание: Каждые 500 лет Звезда Судьбы, Лаго, проносится по небу, оповещая всех шаманов мира о том, что Великий Турнир Шаманов начался. Лаго — звезда, несущая миру разрушение и хаос, но раз в 500 лет выбирается Шаман, достойный объединения с Королем Духов — духом всего сущего — чтобы спасти мир. Шаман — человек, способный видеть духов и сражаться вместе с ними как единое целое. Шаманы, в отличие от людей, хранят жизнь на Земле, берегут природу и понимают её. Цель Турнира заключается в том, что шаман, который прошёл все испытания и бои, становится Королём Шаманов, объединяется с Королём Духов — величайшим и сильнейшим духом в мире, — и становится настолько могущественным, что может управлять всей жизнью на Земле.Релиз от: Над релизом работали:
  • Энкод, скрипт, сведение и чистка звука, покупка лицензионных DVD, главный мученик : ALEKS KV
  • Предоставил самые лучшие звуковые дорожки с TrueStereo звуком на 01-24, 27-31 серии: Lexa1988-L1
  • Предоставили лучшие звуковые дорожки с канала JetiX, СТС: gris, mihail2501, gloom74
  • Работа над постером: SerGoLeOne

Список эпизодов

01. Мальчик танцующий с призраками
02. Ожидающий Самурай
03. Другой Шаман
04. Слияние 100%
05. Шаман, в полном рассвете сил
06. Мастер Кунг-фу
07. Пайлон, Кулак Ярости
08. Жизнь Шамана
09. Мальчик с севера
10. Судьба 600 лет
11. Дождь, который идёт весной
12. Звезда, символизирующая о начале
13. Воплощение духа
14. Битва шаманов
15. Костяные убийцы
16. Любовь Фауста
17. Путешествие двух людей к Заветному месту
18. Йо
19. Два больших Духа
20. Кладбище множества духов
21. Вера
22. Наши особые приёмы
23. Пробуждение жрицы
24. Непобедимый Тао Эн
25. Путешествие шаманов
26. Необъятная Америка
27. В поисках революции
28. Месть Лизерга
29. Супер мужество
30. Украденный Оракул-передатчик
31. Лес фей
32. Горький привкус дружбы
33. Тайны клана Асакура
34. Американские горячие источники
35. Легенда о вампире
36. Пушка ангела
37. Король приколов
38. Забытая песнь Семиноа
39. Цветочная группа
40. Тысячелетняя книга техник
41. Взрывное Воплощение духа
42. Дух меча
43. Битва Богов
44. Еще один удар
45. Великие Духи
46. Призрак семьи Тао
47. Чистая Душа
48. Мессия Дракона
49. Доктор из Докторов
50. Тьма в моём сердце
51. Охота на Шаманов
52. Тренировка?! Общий сбор
53. Пока-пока!
54. Восьмой Ангел
55. Дорога к Вавилону
56. Врата Вавилона
57. Битвам Шаманов, Конец?
58. Пылающие Ангелы
59. Священная Земля Звёзд
60. Друзья
61. Вечное Прощание
62. Борьба Со Смертью
63. Надежда Умирает Последней
64. Эпилог

Media Info

General
Complete name : XXXXXXXXXXXXXXX\Shaman King 01.mkv
Format : Matroska
File size : 372 MiB
Duration : 24mn 3s
Overall bit rate : 2 164 Kbps
Encoded date : UTC 2013-01-06 19:22:09
Writing application : mkvmerge v5.5.0 ('Healer') built on Apr 6 2012 21:43:24
Writing library : libebml v1.2.3 + libmatroska v1.3.0
Video
ID : 1
Format : AVC
Format/Info : Advanced Video Codec
Format profile : High@L3.0
Format settings, CABAC : Yes
Format settings, ReFrames : 5 frames
Codec ID : V_MPEG4/ISO/AVC
Duration : 24mn 3s
Bit rate : 1 737 Kbps
Width : 640 pixels
Height : 480 pixels
Display aspect ratio : 4:3
Frame rate : 23.976 fps
Color space : YUV
Chroma subsampling : 4:2:0
Bit depth : 8 bits
Scan type : Progressive
Bits/(Pixel*Frame) : 0.236
Stream size : 299 MiB (80%)
Title : Original
Writing library : x264 core 120 r2164 da19765
Encoding settings : cabac=1 / ref=5 / deblock=1:0:0 / analyse=0x3:0x113 / me=umh / subme=8 / psy=1 / psy_rd=1.00:0.00 / mixed_ref=1 / me_range=16 / chroma_me=1 / trellis=1 / 8x8dct=1 / cqm=0 / deadzone=21,11 / fast_pskip=1 / chroma_qp_offset=-2 / threads=12 / sliced_threads=0 / nr=0 / decimate=1 / interlaced=0 / bluray_compat=0 / constrained_intra=0 / bframes=3 / b_pyramid=2 / b_adapt=2 / b_bias=0 / direct=3 / weightb=1 / open_gop=0 / weightp=2 / keyint=240 / keyint_min=23 / scenecut=40 / intra_refresh=0 / rc_lookahead=50 / rc=crf / mbtree=1 / crf=14.5 / qcomp=0.60 / qpmin=0 / qpmax=69 / qpstep=4 / ip_ratio=1.40 / aq=1:1.00
Language : Japanese
Audio #1
ID : 2
Format : AC-3
Format/Info : Audio Coding 3
Mode extension : CM (complete main)
Codec ID : A_AC3
Duration : 24mn 3s
Bit rate mode : Constant
Bit rate : 192 Kbps
Channel(s) : 2 channels
Channel positions : Front: L R
Sampling rate : 48.0 KHz
Bit depth : 16 bits
Stream size : 33.0 MiB (9%)
Title : JetiX
Language : Russian
Audio #2
ID : 3
Format : AC-3
Format/Info : Audio Coding 3
Mode extension : CM (complete main)
Codec ID : A_AC3
Duration : 24mn 3s
Bit rate mode : Constant
Bit rate : 192 Kbps
Channel(s) : 2 channels
Channel positions : Front: L R
Sampling rate : 48.0 KHz
Bit depth : 16 bits
Stream size : 33.0 MiB (9%)
Title : Original
Language : Japanese
Часто задаваемые вопросы и комментарии

Вопрос - Откуда вы взяли такие качественные русские дорожки?

Ответ - Дорожки были взяты из личных архивов и лицензионных DVD дисков.
Отдельную благодарность хочется выразить пользователю Lexa1988-L1, за то, что раскопал из архивов дорожки, записанные с СТС в TrueStereo звуке. И пользователям gris, mihail2501, gloom74, за то что раскопали свои архивы и поделились лучшими звуками ко многим сериям.

Вопрос - Рипы делались с Японских DVD?

Ответ - С Японских. Все иероглифы, хирагана и катакана присутствуют.

Вопрос - Хочу смотреть с одноголосной озвучкой? Как это сделать?

Ответ - Чтобы смотреть с одноголосной озвучкой, необходимо из папки "Audio RUS" переписать файлы в папку, где находятся видеофайлы.
Потом, следует запустить плеер и переключиться на внешнюю дорожку.
Качество: DVDRip
Формат видео: MKV
Видео кодек: H.264
Аудио кодек: AC3
Видео: H264 640x480 23.976fps ~2400Kbps 8bit
Аудио:
  • русская: Dolby AC3 48000Hz stereo 192Kbps [Дубляж JetiX] {True Stereo - Эпизоды 01-15,17,19-24,27-31}
  • русская: Dolby AC3 48000Hz stereo 192Kbps [Одноголосная AnimeGroup] (Эпизоды 01-56)
  • японская: Dolby AC3 48000Hz stereo 192Kbps [Оригинал]

Скриншоты Превью

-
Показать сообщения:    

Текущее время: 20-Окт 11:19

Часовой пояс: UTC - 1


Вы не можете начинать темы
Вы не можете отвечать на сообщения
Вы не можете редактировать свои сообщения
Вы не можете удалять свои сообщения
Вы не можете голосовать в опросах
Вы не можете прикреплять файлы к сообщениям
Вы не можете скачивать файлы

!ВНИМАНИЕ!
Сайт не предоставляет электронные версии произведений, а занимается лишь коллекционированием и каталогизацией ссылок, присылаемых и публикуемых на форуме нашими читателями. Если вы являетесь правообладателем какого-либо представленного материала и не желаете, чтобы ссылка на него находилась в нашем каталоге, свяжитесь с нами, и мы незамедлительно удалим ее. Файлы для обмена на трекере предоставлены пользователями сайта, и администрация не несет ответственности за их содержание. Просьба не заливать файлы, защищенные авторскими правами, а также файлы нелегального содержания!