Важное объявление!
У Нас Все раздачи мультитрекерные, при нуле пиров в релизах, можете смело вставать на закачку!
Статистика раздачи
Размер:     |    Зарегистрирован:     |    Скачан:     |   
Нет
 
     
 
 
Автор Сообщение

HUNTER

Стаж:
5 лет
Сообщений:
67968

Репутация: 101

[+] [-]
Вне форума [Профиль] [ЛС]

Король свиней / The King of Pigs / Dwaejiui Wang / 돼지의 왕
Страна: Южная Корея
Год выпуска: 2011 г.
Жанр: драма, психология, триллер
Тип: Movie
Продолжительность: 1 час 36 мин. 52 сек.
Режиссер: Йен Сан-Хо
Студия: Studio Dadashow

Описание: Родом из детства…совсем нелегкого детства, два друга решают встретиться спустя много лет после окончания школы, где им приходилось очень не легко. Именно там они впервые столкнулись с неравенством в обществе, и тем, как нелегко приходится тому, кто лишь мясо для тех, кто ступенью выше. Именно там они встречают Чёла - парня, которому плевать на устоявшиеся порядки, готовому грызть глотки тем, кто лает на него.
Доп. информация: Жесть
Качество: HDTVRip
Тип релиза: Без хардсаба
Формат видео: MP4
Наличие линковки: Нет
Релиз/Автор рипа: Shiniori-Raws
Видео: H264/AVC; 1280x720; ~1264 kbps; 23.976 fps; 8 bit
Аудио: AAC; ~192 kbps, 48000Hz, 2 ch (в составе контейнера), язык Корейский
Субтитры: SRT, внешние, язык субтитров Русский ; Перевод: cyril51rus
Субтитры 2: SRT, внешние, язык субтитров Английский
Подробные тех. данные
ОбщееПолное имя : F:\FILMS\ANIME\The King of Pigs\The King of Pigs 2011 720p HDTV x264 AAC-Shiniori.mp4Формат : MPEG-4Профиль формата : Base MediaИдентификатор кодека : isomРазмер файла : 1011 МбайтПродолжительность : 1 ч. 36 м.Режим общего битрейта : ПеременныйОбщий поток : 1459 Кбит/секДата кодирования : UTC 2013-03-20 23:45:32Дата пометки : UTC 2013-03-20 23:45:32
ВидеоИдентификатор : 1Формат : AVCФормат/Информация : Advanced Video CodecПрофиль формата : High@L4.1Параметр CABAC формата : ДаПараметр ReFrames формата : 3 кадраИдентификатор кодека : avc1Идентификатор кодека/Информация : Advanced Video CodingПродолжительность : 1 ч. 36 м.Битрейт : 1264 Кбит/секМаксимальный битрейт : 6461 Кбит/секШирина : 1280 пикселейВысота : 720 пикселейСоотношение сторон : 16:9Режим частоты кадров : ПостоянныйЧастота кадров : 23,976 кадра/секЦветовое пространство : YUVСубдискретизация насыщенности : 4:2:0Битовая глубина : 8 битТип развёртки : ПрогрессивнаяБит/(Пиксели*Кадры) : 0.057Размер потока : 876 Мбайт (87%)Библиотека кодирования : x264 core 65 r999kMod cc51047Настройки программы : cabac=1 / ref=3 / deblock=1:0:0 / analyse=0x3:0x133 / me=umh / subme=6 / psy_rd=1.0:0.0 / mixed_ref=1 / me_range=16 / chroma_me=1 / trellis=1 / 8x8dct=1 / cqm=0 / deadzone=21,11 / chroma_qp_offset=-2 / threads=2 / thread_queue=2 / nr=0 / decimate=1 / mbaff=0 / bframes=3 / b_pyramid=1 / b_adapt=1 / b_bias=0 / direct=1 / wpredb=1 / keyint=250 / keyint_min=25 / scenecut=40(pre) / rc=crf / crf=21.0000 / qcomp=0.60 / qpmin=10 / qpmax=51 / qpstep=4 / ip_ratio=1.40 / pb_ratio=1.30 / aq=1:1.00Дата кодирования : UTC 2013-03-20 23:45:32Дата пометки : UTC 2013-03-20 23:47:29
АудиоИдентификатор : 2Формат : AACФормат/Информация : Advanced Audio CodecПрофиль формата : LCИдентификатор кодека : 40Продолжительность : 1 ч. 36 м.Вид битрейта : ПеременныйБитрейт : 192 Кбит/секМаксимальный битрейт : 278 Кбит/секКаналы : 2 каналаРасположение каналов : Front: L RЧастота : 48,0 КГцМетод сжатия : С потерямиРазмер потока : 133 Мбайт (13%)Дата кодирования : UTC 2013-03-20 23:47:27Дата пометки : UTC 2013-03-20 23:47:29
Скриншоты

_________________
Показать сообщения:    

Текущее время: Сегодня 12:49

Часовой пояс: GMT



Вы не можете начинать темы
Вы не можете отвечать на сообщения
Вы не можете редактировать свои сообщения
Вы не можете удалять свои сообщения
Вы не можете голосовать в опросах
Вы не можете прикреплять файлы к сообщениям
Вы не можете скачивать файлы