Ивановский Торрент трекер
Яндекс.Погода
 

[Цитировать]
HUNTER

Король обезьян / The Monkey King / Xi you ji: Da nao tian gong
Год выпуска: 2014
Страна: Китай, Гонконг, США
Жанр: Боевик, приключения, семейный
Продолжительность: 01:59:18
Перевод: Любительский (одноголосый) [Виктор Береговых]
Режиссер: Поу-Сои Чинг
В ролях: Донни Йен, Чоу Юнь-Фат, Аарон Квок, Джо Чэнь, Моника Мок
Описание: Когда-то демоны пытались уничтожить Небесные Чертоги и сместить Нефритового Императора (Чоу Юнь-Фат), но их войско было разбито, а их предводителя (Аарон Квок) спасла сестра Императора, упросившая брата даровать ему жизнь. Чтобы исключить подобные бунты, богиня Ну Ва (Чжан Цзилин) возводит вокруг Небесных Чертогов защитный панцирь и заодно дарит жизнь маленькой обезьянке, которая вырастет в Сунь Укуна (Донни Йен) – отважного, но непоседливого воина. В будущем ему предстоит сыграть очень важную роль в надвигающемся повторном восстании демонов.
Формат 3D: Half SideBySide / Горизонтальная анаморфная стереопара
Порядок ракурсов: левый ракурс первый
Качество: BDRip
Контейнер: MKV
Видео кодек: x264
Аудио кодек: MP3, AC3
Видео: MPEG-4 AVC, 9 197 Кбит/с, 1920х1080, 23.976 кадр/с
Аудио 1: Русский, MP3, 44.1 KHz, 2 ch, 192 Kbps [Любительский (одноголосый) - Виктор Береговых]
Аудио 2: Mandarin, AC3, 48.0 KHz, 6 ch, 384 Kbps [Original]

Скриншоты

MediaInfo

Общее
Уникальный идентификатор : 237497021392731346847077749747563925457 (0xB2AC433487D7088AB0E89F10B8088FD1)
Полное имя : D:\Download\The Monkey King 3D 2014 BDRip 1080p halfSbS [3d-tracker.ru].mkv
Формат : Matroska
Версия формата : Version 2
Размер файла : 8,31 Гбайт
Продолжительность : 1 ч. 59 м.
Общий поток : 9972 Кбит/сек
Название фильма : 3d-tracker.ru
Дата кодирования : UTC 2014-04-03 10:10:15
Программа кодирования : mkvmerge v4.0.0 ('The Stars were mine') сборка от Jun 6 2010 16:18:42
Библиотека кодирования : libebml v1.0.0 + libmatroska v1.0.0
Видео
Идентификатор : 1
Формат : AVC
Формат/Информация : Advanced Video Codec
Профиль формата : High@L4.1
MultiView_Count : 2
MultiView_Layout : Right Eye
Параметр CABAC формата : Да
Параметр ReFrames формата : 2 кадра
Идентификатор кодека : V_MPEG4/ISO/AVC
Продолжительность : 1 ч. 59 м.
Битрейт : 9197 Кбит/сек
Ширина : 1920 пикселей
Высота : 1080 пикселей
Соотношение сторон : 16:9
Режим частоты кадров : Постоянный
Частота кадров : 23,976 кадра/сек
Цветовое пространство : YUV
Субдискретизация насыщенности : 4:2:0
Битовая глубина : 8 бит
Тип развёртки : Прогрессивная
Бит/(Пиксели*Кадры) : 0.185
Размер потока : 7,66 Гбайт (92%)
Заголовок : 3d-tracker.ru
Библиотека кодирования : x264 core
Язык : English
Default : Нет
Forced : Нет
Основные цвета : BT.709
Характеристики трансфера : BT.709
Коэффициенты матрицы : BT.709
Аудио #1
Идентификатор : 2
Формат : MPEG Audio
Версия формата : Version 1
Профиль формата : Layer 3
Идентификатор кодека : A_MPEG/L3
Идентификатор кодека/Подсказка : MP3
Продолжительность : 1 ч. 59 м.
Вид битрейта : Постоянный
Битрейт : 192 Кбит/сек
Каналы : 2 канала
Частота : 44,1 КГц
Метод сжатия : С потерями
Задержка видео : 200 мс.
Размер потока : 164 Мбайт (2%)
Заголовок : 3d-tracker.ru
Язык : Russian
Default : Нет
Forced : Нет
Аудио #2
Идентификатор : 3
Формат : AC-3
Формат/Информация : Audio Coding 3
Расширение режима : CM (complete main)
Параметр Endianness формата : Big
Идентификатор кодека : A_AC3
Продолжительность : 1 ч. 59 м.
Вид битрейта : Постоянный
Битрейт : 384 Кбит/сек
Каналы : 6 каналов
Расположение каналов : Front: L C R, Side: L R, LFE
Частота : 48,0 КГц
Битовая глубина : 16 бит
Метод сжатия : С потерями
Задержка видео : 200 мс.
Размер потока : 328 Мбайт (4%)
Заголовок : 3d-tracker.ru
Язык : English
Default : Нет
Forced : Нет
Меню
00:00:00.000 : en:00:00:00.000
00:12:26.913 : en:00:12:26.913
00:23:12.600 : en:00:23:12.600
00:30:15.522 : en:00:30:15.522
00:39:09.973 : en:00:39:09.973
00:50:01.207 : en:00:50:01.207
01:03:05.782 : en:01:03:05.782
01:10:40.111 : en:01:10:40.111
01:20:56.101 : en:01:20:56.101
01:30:15.660 : en:01:30:15.660
01:38:19.268 : en:01:38:19.268
01:46:47.234 : en:01:46:47.234


Показать сообщения:    

Текущее время: 18-Дек 14:57

Часовой пояс: UTC ± 0


Вы не можете начинать темы
Вы не можете отвечать на сообщения
Вы не можете редактировать свои сообщения
Вы не можете удалять свои сообщения
Вы не можете голосовать в опросах
Вы не можете прикреплять файлы к сообщениям
Вы не можете скачивать файлы

!ВНИМАНИЕ!
Сайт не предоставляет электронные версии произведений, а занимается лишь коллекционированием и каталогизацией ссылок, присылаемых и публикуемых на форуме нашими читателями. Если вы являетесь правообладателем какого-либо представленного материала и не желаете, чтобы ссылка на него находилась в нашем каталоге, свяжитесь с нами, и мы незамедлительно удалим ее. Файлы для обмена на трекере предоставлены пользователями сайта, и администрация не несет ответственности за их содержание. Просьба не заливать файлы, защищенные авторскими правами, а также файлы нелегального содержания!