Важное объявление!
У Нас Все раздачи мультитрекерные, при нуле пиров в релизах, можете смело вставать на закачку!
 
Автор Сообщение

HUNTER

Стаж:
4 года 6 месяцев
Сообщений:
60959

Репутация: 101

[+] [-]
Вне форума [Профиль] [ЛС]

Король Лев / The Lion King-
Страна: США
Жанр: Мультфильм, Мюзикл, Драма, Комедия, Приключения, Семейный
Продолжительность: 01:25:16
Версия: Special Edition
Год выпуска: 1994
Перевод: Профессиональный (двухголосый закадровый) (П.Гланц и Т.Казакова)
Перевод 2: Авторский (одноголосый закадровый) А.Гаврилов
Перевод 3: Профессиональный (дублированный)
Русские субтитры: есть (Отдельно)
Оригинальная аудиодорожка: Английский-Режиссёр: Роджер Аллерс /Roger Allers/, Роб Минкофф /Rob Minkoff-Роли озвучивали: Джонатан Тейлор Томас /Jonathan Taylor Thomas/, Мэттью Бродерик /Matthew Broderick/, Джеймс Эрл Джонс /James Earl Jones/, Джереми Айронс /Jeremy Irons/, Мойра Келли /Moira Kelly/, Никета Калам /Niketa Calame/, Эрни Сабелла /Ernie Sabella/, Натан Лейн /Nathan Lane/, Роберт Гийом /Robert Guillaume/, Роуэн Эткинсон /Rowan Atkinson/...-Описание: У величественного короля-льва Муфасы рождается наследник – львенок по имени Симба. Уже в детстве любознательный малыш становится жертвой интриг своего завистливого дяди Шрама, мечтающего только о власти и готового ради этого на все. В течение мультфильма показан весь трудный путь маленького Симбы, от изгнания, борьбы, до осознания того, что значит быть настоящим Королем. Закаленный испытаниями, он познает горечь утраты, предательство и в нелегкой борьбе завоюет свое законное место в "круге жизни", а главное, обретет верных, беззаботных, озорных и крайне забавных друзей:-Доп. информация:

Релиз: Автор: MECHANICAL ENGINEER-Качество: DVDRip
Формат: AVI
Видео: 720 x 416; 25.000 fps; 2053 kbps; 0.27 bit/pixel
Аудио: 48 kHz; 5.1 ch; 384.00 kbps; AC3 Dolby Digital / П.Гланц и Т.Казакова
Размер файла: 1492.62 Mb (1/3 DVD5)
Аудио 2: 48 kHz; 5.1 ch; 384.00 kbps; AC3 Dolby Digital / А.Гаврилов (Отдельно)
Аудио 3: 48 kHz; 5.1 ch; 384.00 kbps; AC3 Dolby Digital / Дубляж (Отдельно)
Аудио 4: 48 kHz; 5.1 ch; 384.00 kbps; AC3 Dolby Digital / Английский (Отдельно)
Субтитры: Русские. (Отдельно), СПАСИБО: vinalord

MediaInfo :

Format : AVI
Format/Info : Audio Video Interleave
File size : 1.46 GiB
Duration : 1h 25mn
Overall bit rate : 2 447 Kbps
Movie name : Король лев / The Lion King (1994) [Special Edition]
Director : MECHANICAL ENGINEER (DVD 9)
Writing application : VirtualDubMod 1.5.10.3 | www.virtualdub-fr.org || (build 2550/release)
Copyright : HQ-ViDEO
Comment : 25.11.2011
Video
ID : 0
Format : MPEG-4 Visual
Format profile : Advanced Simple@L5
Format settings, BVOP : 1
Format settings, QPel : No
Format settings, GMC : No warppoints
Format settings, Matrix : Custom
Codec ID : XVID
Codec ID/Hint : XviD
Duration : 1h 25mn
Bit rate : 2 053 Kbps
Width : 720 pixels
Height : 416 pixels
Display aspect ratio : 1.731
Frame rate : 25.000 fps
Color space : YUV
Chroma subsampling : 4:2:0
Bit depth : 8 bits
Scan type : Progressive
Compression mode : Lossy
Bits/(Pixel*Frame) : 0.274
Stream size : 1.22 GiB (84%)
Writing library : XviD 64
Audio
ID : 1
Format : AC-3
Format/Info : Audio Coding 3
Mode extension : CM (complete main)
Format settings, Endianness : Big
Codec ID : 2000
Duration : 1h 25mn
Bit rate mode : Constant
Bit rate : 384 Kbps
Channel(s) : 6 channels
Channel positions : Front: L C R, Side: L R, LFE
Sampling rate : 48.0 KHz
Bit depth : 16 bits
Compression mode : Lossy
Stream size : 234 MiB (16%)
Alignment : Split accross interleaves
Interleave, duration : 40 ms (1.00 video frame)
Interleave, preload duration : 500 ms

Скриншоты




_________________
Показать сообщения:    

Текущее время: Сегодня 12:22

Часовой пояс: GMT



Вы не можете начинать темы
Вы не можете отвечать на сообщения
Вы не можете редактировать свои сообщения
Вы не можете удалять свои сообщения
Вы не можете голосовать в опросах
Вы не можете прикреплять файлы к сообщениям
Вы не можете скачивать файлы
Наши партнеры: интернет магазин Ивановского трикотажа textilla.ru