Ивановский Торрент трекер
Яндекс.Погода
 

[Цитировать]
HUNTER

Король Лев / The Lion King- Страна: США
Жанр: драма, мюзикл, приключения, семейный, мультфильм
Продолжительность: 1:24:31
Год выпуска: 1994
Перевод №1: Авторский (одноголосый закадровый) Андрей Гаврилов (ранний)
Перевод №2: Авторский (одноголосый закадровый) Андрей Гаврилов (поздний)
Русские субтитры: нет-Режиссер: Роджер Аллерс / Roger Allers, Роб Минкофф / Rob Minkoff
Роли озвучивали: Джонатан Тейлор Томас, Мэттью Бродерик, Джеймс Эрл Джонс, Джереми Айронс, Мойра Келли, Никета Калам, Эрни Сабелла, Натан Лейн, Роберт Гийом, Роуэн Эткинсон...- -Описание: У величественного Короля-Льва Муфасы рождается наследник по имени Симба. Уже в детстве любознательный малыш становится жертвой интриг своего завистливого дяди Шрама, мечтающего о власти.
Симба познаёт горе утраты, предательство и изгнание, но в конце концов обретает верных друзей и находит любимую. Закалённый испытаниями, он в нелёгкой борьбе отвоёвывает своё законное место в «Круге жизни», осознав, что значит быть настоящим Королём.-Доп. информация: DVD собран multmirом с французского LD PAL для любителей авторского перевода и ценителей LD качества(конкретно для lalo123).
Меню(главное, сцены, звук) сделаны новые русскоязычные, неанимированные, озвученные. Заставка (FPlay) взята с LD PAL(R2). Английская дорожка (без реставрации) - оцифровка с LD NTSC (США) с последующей синхронизацией под LD PAL (Франция). Оцифровка делалась с LD проигрывателя Sony MDP-650D на рекордере Panasonic DMR-ES18. Авторинг делался в DVDMaestro.-Релиз группы: -►сэмпл◄
Просматривать плеером, имеющим возможность выбора языка (аудиодорожки), KMPlayer, Nero ShowTime.....-Качество: LD Transfer
Формат: DVD-Video
Видео: PAL 4:3 (720x576) VBR, ~ 6371.19 kbps avg
Аудио #1: Russian (Dolby AC3, 2 ch, 192 kbps) - Гаврилов (ранний перевод ~1994-96 г.)
Аудио #2: Russian (Dolby AC3, 2 ch, 192 kbps) - Гаврилов (поздний перевод ~2008-09 г.)
Аудио #3: English (Dolby AC3, 2 ch, 192 kbps) - Английский (оригинал)
Субтитры: отсутствуют

MediaInfo

GeneralComplete name : F:\Торрент\Король Лев DVD-LD\VTS_02_1.VOBFormat : MPEG-PSFile size : 1 024 MiBDuration : 22mn 35sOverall bit rate : 6 337 Kbps
VideoID : 224 (0xE0)Format : MPEG VideoFormat version : Version 2Format profile : Main@MainFormat settings, BVOP : YesFormat settings, Matrix : DefaultDuration : 22mn 35sBit rate mode : VariableBit rate : 5 510 KbpsNominal bit rate : 9 282 KbpsWidth : 720 pixelsHeight : 576 pixelsDisplay aspect ratio : 4:3Frame rate : 25.000 fpsStandard : PALResolution : 8 bitsColorimetry : 4:2:0Scan type : InterlacedScan order : Top Field FirstBits/(Pixel*Frame) : 0.531Stream size : 890 MiB (87%)
Audio #1ID : 128 (0x80)Format : AC-3Format/Info : Audio Coding 3Duration : 22mn 34sBit rate mode : ConstantBit rate : 192 KbpsChannel(s) : 2 channelsChannel positions : L RSampling rate : 48.0 KHzStream size : 31.0 MiB (3%)
Audio #2ID : 129 (0x81)Format : AC-3Format/Info : Audio Coding 3Duration : 22mn 34sBit rate mode : ConstantBit rate : 192 KbpsChannel(s) : 2 channelsChannel positions : L RSampling rate : 48.0 KHzStream size : 31.0 MiB (3%)
Audio #3ID : 130 (0x82)Format : AC-3Format/Info : Audio Coding 3Duration : 22mn 34sBit rate mode : ConstantBit rate : 192 KbpsChannel(s) : 2 channelsChannel positions : L RSampling rate : 48.0 KHzStream size : 31.0 MiB (3%)

DVDInfo

Title: Король Лев DVD-LDSize: 3.78 Gb ( 3 960 272,00 KBytes ) - DVD-5Enabled regions: 1, 2, 3, 4, 5, 6, 7, 8
VTS_01 : Play Length: 00:00:13 Video: PAL 4:3 (720x576) VBR Audio: English (Dolby AC3, 2 ch)
VTS_02 : Play Length: 01:24:31 Video: PAL 4:3 (720x576) VBR Audio: Russian (Dolby AC3, 2 ch) Russian (Dolby AC3, 2 ch) English (Dolby AC3, 2 ch)

Скриншоты меню


Скриншоты фильма




Показать сообщения:    

Текущее время: 21-Сен 16:51

Часовой пояс: UTC - 1


Вы не можете начинать темы
Вы не можете отвечать на сообщения
Вы не можете редактировать свои сообщения
Вы не можете удалять свои сообщения
Вы не можете голосовать в опросах
Вы не можете прикреплять файлы к сообщениям
Вы не можете скачивать файлы

!ВНИМАНИЕ!
Сайт не предоставляет электронные версии произведений, а занимается лишь коллекционированием и каталогизацией ссылок, присылаемых и публикуемых на форуме нашими читателями. Если вы являетесь правообладателем какого-либо представленного материала и не желаете, чтобы ссылка на него находилась в нашем каталоге, свяжитесь с нами, и мы незамедлительно удалим ее. Файлы для обмена на трекере предоставлены пользователями сайта, и администрация не несет ответственности за их содержание. Просьба не заливать файлы, защищенные авторскими правами, а также файлы нелегального содержания!