Ивановский Торрент трекер
Яндекс.Погода
 

[Цитировать]
HUNTER

Король лев 2: Гордость Симбы / The Lion King II: Simba's Pride- Год выпуска: 1998
Страна: США, Австралия
Жанр: мультфильм, мюзикл, комедия, приключения, семейный
Продолжительность: 01:20:51--Перевод:
  • Профессиональный (полное дублирование) от BD CEE
  • Профессиональный (двухголосый, закадровый) от Карусель
  • Студийный (одноголосый, закадровый) от Петр Гланц
  • Авторский (одноголосый, закадровый) от Юрий Живов
  • Авторский (одноголосый, закадровый) от Николай Антонов
  • Авторский (одноголосый, закадровый) от Сергей Визгунов
--Субтитры:
  • Русские (полные/песни)
  • Английские
--Режиссёр: Дэррелл Руни, Робб ЛаДука
Роли озвучивали: Мэттью Бродерик, Мойра Келли, Нив Кэмпбелл, Лиз Колэуэй, Мишель Хорн, Эшли Эднер, Charity Sanoy, Сюзанн Плешетт, Энди Дик , Райан О’Донохью, Джейсон Мэрсден, Джин Миллер--Описание: Много времени утекло с тех пор, как лев Симба сверг своего злого дядю Скара и вернул трон короля саванны. У него и королевы Налы уже подрастает дочь - принцесса Киара. Однако порученная легкомысленным заботам наших старых знакомых Тимона и Пумбы, проказливая и непослушная Киара пока никак не похожа на будущую королеву. Однажды сбежав в Запретную Землю, она встречает там львенка Кову, который становится ее лучшим другом. Да только принцесса не знает, что эта дружба может стоить ей короны! Кову - наследник Скара, и пусть он не пошел в старого интригана, его мать Зира спит и видит, как бы усадить сына на трон. И чем прочнее дружба между Киарой и Кову, тем гуще тучи над племенем Симбы...--Качество: BDRip 1080р
Формат: MKV
Видео: x264, 1920х1080, 6500 kbps, 23.976 fps
Аудио:
  • ENG - DTS, 48.0 KHz, 5.1 ch, 1509 kbps
  • RUS - AC3, 48.0 KHz, 5.1 ch, 640 kbps - BD CEE
  • RUS - DTS, 48.0 KHz, 5.1 ch, 1509 kbps - Карусель
  • RUS - AC3, 48.0 KHz, 5.1 ch, 448 kbps - Петр Гланц
  • RUS - DTS, 48.0 KHz, 5.1 ch, 1509 kbps - Юрий Живов
  • RUS - AC3, 48.0 KHz, 2 ch, 192 kbps - Николай Антонов
  • RUS - AC3, 48.0 KHz, 2 ch, 192 kbps - Сергей Визгунов
-

MediaInfo

Код: copyText_writeLink('this.parentNode.parentNode.nextSibling.nextSibling'); D:\Downloads\The Lion King 2 [BDRip] [1080p].mkv
General
Unique ID : 191065238651503301067025434131363164069 (0x8FBDD391E6FCEB839A0F3AEB8D5E6FA5)
Complete name : D:\Downloads\The Lion King 2 [BDRip] [1080p].mkv
Format : Matroska
Format version : Version 2
File size : 7.06 GiB
Duration : 1h 20mn
Overall bit rate : 12.5 Mbps
Movie name : ~Sahaa~
Encoded date : UTC 2011-11-09 16:13:06
Writing application : mkvmerge v4.0.0 ('The Stars were mine') сборка от Jun 6 2010 16:18:42
Writing library : libebml v1.0.0 + libmatroska v1.0.0
Video #1
ID : 1
Format : AVC
Format/Info : Advanced Video Codec
Format profile : High@L4.1
Format settings, CABAC : Yes
Format settings, ReFrames : 4 frames
Codec ID : V_MPEG4/ISO/AVC
Duration : 1h 20mn
Bit rate : 6 500 Kbps
Width : 1 920 pixels
Height : 1 080 pixels
Display aspect ratio : 16:9
Frame rate mode : Constant
Frame rate : 23.976 fps
Color space : YUV
Chroma subsampling : 4:2:0
Bit depth : 8 bits
Scan type : Progressive
Bits/(Pixel*Frame) : 0.131
Stream size : 3.53 GiB (50%)
Title : The.Lion.King.2.Simba's.Pride.1998.BluRay.1080p.x264.DTS-HDMaNiAcS
Writing library : x264 core 116 r2074 2641b9e
Encoding settings : cabac=1 / ref=4 / deblock=1:-1:-1 / analyse=0x3:0x113 / me=tesa / subme=11 / psy=1 / psy_rd=0.53:0.00 / mixed_ref=0 / me_range=24 / chroma_me=1 / trellis=2 / 8x8dct=1 / cqm=0 / deadzone=21,11 / fast_pskip=0 / chroma_qp_offset=-2 / threads=12 / sliced_threads=0 / nr=0 / decimate=1 / interlaced=0 / bluray_compat=0 / constrained_intra=0 / bframes=6 / b_pyramid=2 / b_adapt=2 / b_bias=0 / direct=3 / weightb=1 / open_gop=0 / weightp=2 / keyint=250 / keyint_min=23 / scenecut=40 / intra_refresh=0 / rc_lookahead=90 / rc=2pass / mbtree=1 / bitrate=6500 / ratetol=1.0 / qcomp=0.60 / qpmin=10 / qpmax=69 / qpstep=4 / cplxblur=20.0 / qblur=0.5 / ip_ratio=1.40 / aq=2:0.90
Language : English
Default : No
Forced : No
Audio #2
ID : 2
Format : AC-3
Format/Info : Audio Coding 3
Mode extension : CM (complete main)
Format settings, Endianness : Big
Codec ID : A_AC3
Duration : 1h 20mn
Bit rate mode : Constant
Bit rate : 640 Kbps
Channel(s) : 6 channels
Channel positions : Front: L C R, Side: L R, LFE
Sampling rate : 48.0 KHz
Bit depth : 16 bits
Compression mode : Lossy
Stream size : 370 MiB (5%)
Title : Дубляж
Language : Russian
Default : Yes
Forced : No
Audio #3
ID : 3
Format : AC-3
Format/Info : Audio Coding 3
Mode extension : CM (complete main)
Format settings, Endianness : Big
Codec ID : A_AC3
Duration : 1h 20mn
Bit rate mode : Constant
Bit rate : 192 Kbps
Channel(s) : 2 channels
Channel positions : Front: L R
Sampling rate : 48.0 KHz
Bit depth : 16 bits
Compression mode : Lossy
Stream size : 111 MiB (2%)
Title : Антонов
Language : Russian
Default : No
Forced : No
Audio #4
ID : 4
Format : AC-3
Format/Info : Audio Coding 3
Mode extension : CM (complete main)
Format settings, Endianness : Big
Codec ID : A_AC3
Duration : 1h 20mn
Bit rate mode : Constant
Bit rate : 192 Kbps
Channel(s) : 2 channels
Channel positions : Front: L R
Sampling rate : 48.0 KHz
Bit depth : 16 bits
Compression mode : Lossy
Stream size : 111 MiB (2%)
Title : Визгунов
Language : Russian
Default : No
Forced : No
Audio #5
ID : 5
Format : AC-3
Format/Info : Audio Coding 3
Mode extension : CM (complete main)
Format settings, Endianness : Big
Codec ID : A_AC3
Duration : 1h 20mn
Bit rate mode : Constant
Bit rate : 448 Kbps
Channel(s) : 6 channels
Channel positions : Front: L C R, Side: L R, LFE
Sampling rate : 48.0 KHz
Bit depth : 16 bits
Compression mode : Lossy
Stream size : 259 MiB (4%)
Title : Гланц
Language : Russian
Default : No
Forced : No
Audio #6
ID : 6
Format : DTS
Format/Info : Digital Theater Systems
Mode : 16
Format settings, Endianness : Big
Codec ID : A_DTS
Duration : 1h 20mn
Bit rate mode : Constant
Bit rate : 1 509 Kbps
Channel(s) : 6 channels
Channel positions : Front: L C R, Side: L R, LFE
Sampling rate : 48.0 KHz
Bit depth : 24 bits
Compression mode : Lossy
Stream size : 872 MiB (12%)
Title : Живов
Language : Russian
Default : No
Forced : No
Audio #7
ID : 7
Format : DTS
Format/Info : Digital Theater Systems
Mode : 16
Format settings, Endianness : Big
Codec ID : A_DTS
Duration : 1h 20mn
Bit rate mode : Constant
Bit rate : 1 510 Kbps
Channel(s) : 6 channels
Channel positions : Front: L C R, Side: L R, LFE
Sampling rate : 48.0 KHz
Bit depth : 24 bits
Compression mode : Lossy
Delay relative to video : 11ms
Stream size : 873 MiB (12%)
Title : Английский
Language : English
Default : No
Forced : No
Audio #9
ID : 9
Format : DTS
Format/Info : Digital Theater Systems
Mode : 16
Format settings, Endianness : Big
Codec ID : A_DTS
Duration : 1h 20mn
Bit rate mode : Constant
Bit rate : 1 509 Kbps
Channel(s) : 6 channels
Channel positions : Front: L C R, Side: L R, LFE
Sampling rate : 48.0 KHz
Bit depth : 24 bits
Compression mode : Lossy
Stream size : 872 MiB (12%)
Title : "Карусель"
Language : Russian
Default : No
Forced : No
Text #8
ID : 8
Format : UTF-8
Codec ID : S_TEXT/UTF8
Codec ID/Info : UTF-8 Plain Text
Title : Английские
Language : English
Default : No
Forced : No
-

Скриншоты

Показать сообщения:    

Текущее время: 20-Окт 18:58

Часовой пояс: UTC - 1


Вы не можете начинать темы
Вы не можете отвечать на сообщения
Вы не можете редактировать свои сообщения
Вы не можете удалять свои сообщения
Вы не можете голосовать в опросах
Вы не можете прикреплять файлы к сообщениям
Вы не можете скачивать файлы

!ВНИМАНИЕ!
Сайт не предоставляет электронные версии произведений, а занимается лишь коллекционированием и каталогизацией ссылок, присылаемых и публикуемых на форуме нашими читателями. Если вы являетесь правообладателем какого-либо представленного материала и не желаете, чтобы ссылка на него находилась в нашем каталоге, свяжитесь с нами, и мы незамедлительно удалим ее. Файлы для обмена на трекере предоставлены пользователями сайта, и администрация не несет ответственности за их содержание. Просьба не заливать файлы, защищенные авторскими правами, а также файлы нелегального содержания!