Король и Шут -"Тень Клоуна" (Концерт в СДК МАИ 10.04.2009),[2011,Punk-Rock,DVD5] :: Ивановский Торрент трекер
Важное объявление!
У Нас Все раздачи мультитрекерные, при нуле пиров в релизах, можете смело вставать на закачку!
Статистика раздачи
Размер:     |    Зарегистрирован:     |    Скачан:     |   
Нет
 
     
 
 
Автор Сообщение

HUNTER

Стаж:
4 года 11 месяцев
Сообщений:
66054

Репутация: 101

[+] [-]
Вне форума [Профиль] [ЛС]

"Тень Клоуна"
Год выпуска: 2011
Страна: Россия
Жанр: Punk
Продолжительность: 00:53:12

Описание:
Концертный DVD группы «Король и Шут» был записан 10 апреля 2009 года в Московском СДК МАИ на презентации программы «Тень Клоуна».
Tracklist:
1. Тень Клоуна
2. Кукольный Театр
3. Дагон
4. В Париж - Домой
5. Хозяин Леса
6. АMTV
7. Продавец Кошмаров
8. Лесник
9. Ром
10. Проклятый Старый Дом
11. Кукла Колдуна
12. Медведь
13. Прыгну со Скалы
Качество: DVD5
Формат: DVD Video
Видео кодек: MPEG2
Аудио кодек: MP2
Видео: MPEG2 Video 720x576 (4:3) 25.00fps Bit rate ~6000 kbps PAL
Аудио: MPEG Audio, 224 Kbps, 48.0 KHz, 2 channels

MediaInfo

F:\Скачанное\Король и Шут - Концерт в СДК МАИ 10.05.2009 (2011)\VIDEO_TS\VIDEO_TS.IFO
General
Complete name : F:\Скачанное\Король и Шут - Концерт в СДК МАИ 10.05.2009 (2011)\VIDEO_TS\VIDEO_TS.IFO
Format : DVD Video
Format profile : Menu
File size : 6.00 KiB
Video #224
ID : 224 (0xE0)
Format : MPEG Video
Format version : Version 1
Bit rate mode : Variable
Width : 720 pixels
Height : 480 pixels
Display aspect ratio : 4:3
Frame rate : 29.970 fps
Standard : NTSC
F:\Скачанное\Король и Шут - Концерт в СДК МАИ 10.05.2009 (2011)\VIDEO_TS\VTS_01_0.IFO
General
Complete name : F:\Скачанное\Король и Шут - Концерт в СДК МАИ 10.05.2009 (2011)\VIDEO_TS\VTS_01_0.IFO
Format : DVD Video
Format profile : Program
File size : 38.0 KiB
Video #224
ID : 224 (0xE0)
Format : MPEG Video
Format version : Version 2
Bit rate mode : Variable
Width : 720 pixels
Height : 576 pixels
Display aspect ratio : 4:3
Frame rate : 25.000 fps
Standard : PAL
Audio #0 (0x0)
ID : 0 (0x0)
Format : MPEG Audio
Format profile : Version 1
Channel(s) : 2 channels
Sampling rate : 48.0 KHz
F:\Скачанное\Король и Шут - Концерт в СДК МАИ 10.05.2009 (2011)\VIDEO_TS\VTS_01_1.VOB
General
Complete name : F:\Скачанное\Король и Шут - Концерт в СДК МАИ 10.05.2009 (2011)\VIDEO_TS\VTS_01_1.VOB
Format : MPEG-PS
File size : 1 024 MiB
Duration : 22mn 31s
Overall bit rate : 6 356 Kbps
Video #224
ID : 224 (0xE0)
Format : MPEG Video
Format version : Version 2
Format profile : Main@Main
Format settings, BVOP : Yes
Format settings, Matrix : Default
Duration : 22mn 31s
Bit rate mode : Constant
Bit rate : 6 000 Kbps
Width : 720 pixels
Height : 576 pixels
Display aspect ratio : 4:3
Frame rate : 25.000 fps
Standard : PAL
Color space : YUV
Chroma subsampling : 4:2:0
Bit depth : 8 bits
Scan type : Interlaced
Scan order : Top Field First
Bits/(Pixel*Frame) : 0.579
Stream size : 968 MiB (94%)
Audio #192
ID : 192 (0xC0)
Format : MPEG Audio
Format version : Version 1
Format profile : Layer 2
Duration : 22mn 31s
Bit rate mode : Constant
Bit rate : 224 Kbps
Channel(s) : 2 channels
Sampling rate : 48.0 KHz
Stream size : 36.1 MiB (4%)
F:\Скачанное\Король и Шут - Концерт в СДК МАИ 10.05.2009 (2011)\VIDEO_TS\VTS_01_2.VOB
General
Complete name : F:\Скачанное\Король и Шут - Концерт в СДК МАИ 10.05.2009 (2011)\VIDEO_TS\VTS_01_2.VOB
Format : MPEG-PS
File size : 1 024 MiB
Duration : 22mn 31s
Overall bit rate : 6 356 Kbps
Video #224
ID : 224 (0xE0)
Format : MPEG Video
Format version : Version 2
Format profile : Main@Main
Format settings, BVOP : Yes
Format settings, Matrix : Default
Format settings, GOP : M=3, N=15
Duration : 22mn 31s
Bit rate mode : Constant
Bit rate : 6 000 Kbps
Width : 720 pixels
Height : 576 pixels
Display aspect ratio : 4:3
Frame rate : 25.000 fps
Standard : PAL
Color space : YUV
Chroma subsampling : 4:2:0
Bit depth : 8 bits
Scan type : Interlaced
Scan order : Top Field First
Bits/(Pixel*Frame) : 0.579
Stream size : 968 MiB (94%)
Audio #192
ID : 192 (0xC0)
Format : MPEG Audio
Format version : Version 1
Format profile : Layer 2
Duration : 22mn 31s
Bit rate mode : Constant
Bit rate : 224 Kbps
Channel(s) : 2 channels
Sampling rate : 48.0 KHz
Video delay : -128ms
Stream size : 36.1 MiB (4%)
F:\Скачанное\Король и Шут - Концерт в СДК МАИ 10.05.2009 (2011)\VIDEO_TS\VTS_01_3.VOB
General
Complete name : F:\Скачанное\Король и Шут - Концерт в СДК МАИ 10.05.2009 (2011)\VIDEO_TS\VTS_01_3.VOB
Format : MPEG-PS
File size : 371 MiB
Duration : 8mn 10s
Overall bit rate : 6 354 Kbps
Video #224
ID : 224 (0xE0)
Format : MPEG Video
Format version : Version 2
Format profile : Main@Main
Format settings, BVOP : Yes
Format settings, Matrix : Default
Duration : 8mn 10s
Bit rate mode : Constant
Bit rate : 6 000 Kbps
Width : 720 pixels
Height : 576 pixels
Display aspect ratio : 4:3
Frame rate : 25.000 fps
Standard : PAL
Color space : YUV
Chroma subsampling : 4:2:0
Bit depth : 8 bits
Scan type : Interlaced
Scan order : Top Field First
Bits/(Pixel*Frame) : 0.579
Stream size : 351 MiB (94%)
Audio #192
ID : 192 (0xC0)
Format : MPEG Audio
Format version : Version 1
Format profile : Layer 2
Duration : 8mn 10s
Bit rate mode : Constant
Bit rate : 224 Kbps
Channel(s) : 2 channels
Sampling rate : 48.0 KHz
Video delay : -168ms
Stream size : 13.1 MiB (4%)

Скринлист

Скриншоты



_________________
Показать сообщения:    

Текущее время: Сегодня 05:33

Часовой пояс: GMT



Вы не можете начинать темы
Вы не можете отвечать на сообщения
Вы не можете редактировать свои сообщения
Вы не можете удалять свои сообщения
Вы не можете голосовать в опросах
Вы не можете прикреплять файлы к сообщениям
Вы не можете скачивать файлы