Король железной дороги / Thomas & Friends: King of the Railway (Роб Сильвестри / Rob Silvestri) [2013, Мультфильм, приключения, семейный, детский, SATRip] Dub :: Ивановский Торрент трекер
Важное объявление!
У Нас Все раздачи мультитрекерные, при нуле пиров в релизах, можете смело вставать на закачку!
 
Автор Сообщение

HUNTER

Стаж:
4 года 11 месяцев
Сообщений:
66047

Репутация: 101

[+] [-]
Вне форума [Профиль] [ЛС]

Король железной дороги / Thomas & Friends: King of the Railway
Страна: Великобритания, Arc Production
Жанр: Мультфильм, приключения, семейный, детский
Продолжительность: 00:59:31
Год выпуска: 2013
Перевод: Профессиональный (дублированный)
Русские субтитры: нет
Режиссёр: Роб Сильвестри / Rob Silvestri
Роли озвучивали: Марк Морахэн, Дэвид Беделла, Жуль де Жонг, Джонатан Форбс, Тереза Галлахер, Боб Голдинг, Майк Грэйди, Уильям Хоуп, Того Игава, Стивен Кинмен
Описание: Новое незабываемое приключение любимца зрителей — бесстрашного паровозика Томаса! Томас и его друзья узнают, что сэр Роберт Норрэмби, граф Содора, возвращается на остров с большим сюрпризом. Все паровозы очень взволнованы из-за этого известия. А тем временем Томасу и его команде предстоит совершить множество подвигов — разгадать загадки прошлого, помочь новому другу, спасти старинный разрушенный замок и, возможно, даже отыскать сокровища!
Семпл: http://sendfile.su/1127843
Качество: SATRip
Формат: AVI
Видео: Xvid 720x400 25fps 1 500 Kbps
Аудио: AC3 48000Hz stereo 192kbps
Субтитры: отсутствуют

Подробные технические данные

C:\Users\Dmitriy\Documents\Король железной дороги.2013.XviD.SATRip.avi General Complete name : C:\Users\Dmitriy\Documents\Король железной дороги.2013.XviD.SATRip.avi Format : AVI Format/Info : Audio Video Interleave File size : 725 MiB Duration : 59mn 31s Overall bit rate : 1 702 Kbps Movie name : Thomas & Friends: King of the Railway Director : SATRip by Thunder Writing application : VirtualDubMod 1.5.10.3 | www.virtualdub-fr.org || (build 2550/release) Original source form/Name : Cartoon Video #0 ID : 0 Format : MPEG-4 Visual Format profile : Advanced Simple@L5 Format settings, BVOP : Yes Format settings, QPel : No Format settings, GMC : No warppoints Format settings, Matrix : Default (H.263) Codec ID : XVID Codec ID/Hint : XviD Duration : 59mn 31s Bit rate : 1 500 Kbps Width : 720 pixels Height : 400 pixels Display aspect ratio : 16:9 Frame rate : 25.000 fps Color space : YUV Chroma subsampling : 4:2:0 Bit depth : 8 bits Scan type : Progressive Bits/(Pixel*Frame) : 0.208 Stream size : 639 MiB (88%) Writing library : XviD 1.2.1 (UTC 2008-12-04) Audio #1 ID : 1 Format : AC-3 Format/Info : Audio Coding 3 Mode extension : CM (complete main) Codec ID : 2000 Duration : 59mn 31s Bit rate mode : Constant Bit rate : 192 Kbps Channel(s) : 2 channels Channel positions : Front: L R Sampling rate : 48.0 KHz Bit depth : 16 bits Stream size : 81.8 MiB (11%) Alignment : Split accross interleaves Interleave, duration : 40 ms (1.00 video frame) Interleave, preload duration : 500 ms

Скриншоты



_________________
Показать сообщения:    

Текущее время: Сегодня 10:44

Часовой пояс: GMT



Вы не можете начинать темы
Вы не можете отвечать на сообщения
Вы не можете редактировать свои сообщения
Вы не можете удалять свои сообщения
Вы не можете голосовать в опросах
Вы не можете прикреплять файлы к сообщениям
Вы не можете скачивать файлы