Важное объявление!
У Нас Все раздачи мультитрекерные, при нуле пиров в релизах, можете смело вставать на закачку!
 
Автор Сообщение

HUNTER

Стаж:
4 года 7 месяцев
Сообщений:
61439

Репутация: 101

[+] [-]
Вне форума [Профиль] [ЛС]

Короли лета / The Kings of Summer
Страна:
Студия: Big Beach Films, Low Spark Films
Жанр: драма, комедия
Год выпуска: 2013
Продолжительность: 01:34:40
Перевод: Профессиональный (многоголосый закадровый)
Cубтитры: русские, English
Формат субтитров: softsub (SRT)
Оригинальная аудиодорожка: английский
Режиссер: Джордан Вогт-Робертс / Jordan Vogt-Roberts
продюсер: Тайлер Дэвидсон, Джон Ходжес, Ричард Ротфелд, ...
оператор: Росс Ридж
композитор: Райан Миллер
художник: Тайлер Б. Робинсон, Дженнифер Клайд, Линетт Мейер, ...
монтаж: Терел Гибсон
В ролях: Крэйг Каковски, Гэбриел Бассо, Кристоффер Картер, Нэйтан Кийес, Ник Офферман, Мойзес Ариас, Эрин Мориарти, Уильям Сонни, Ник Дж. Робинсон, Меган Маллалли
Описание: Джо Той, на пороге полового созревания, понимает, что ему очень мешает попечительство его одинокого отца, Фрэнка, стремящегося контролировать его жизнь. Объявив раз и навсегда о своей независимости, он сбегает на опушку леса вместе со своим лучшим другом Патриком и странным пареньком по имени Биаджо. Беглец сообщает своим друзьям, что они должны построить дом здесь в лесу, где смогут быть свободными от ответственности и родителей. Как только ребята заканчивают строительство своего самодельного жилья, трое наконец-то ощущают себя полноправными хозяевами собственной судьбы.
Скачать: Сэмпл
Тип релиза: BDRip 720p
Контейнер: MKV
Видео: AVC, 5141 Kb/s, 1280x536, 23.976 fps
Аудио: Russian: AC3, 192 Kb/s, 2 ch, 48 KHz
Аудио 2: English: DTS, 1509 Kb/s, 6 ch, 48 KHz

MediaInfo

General
Unique ID : 216062910756845731772370895808612616700 (0xA28C33F5D44DCE04AD4CF262627949FC)
Complete name : E:\bd2\DVDRips\Koroli.leta.2013.P.BDRip.720p.mkv
Format : Matroska
Format version : Version 2
File size : 4.54 GiB
Duration : 1h 35mn
Overall bit rate : 6 788 Kbps
Encoded date : UTC 2014-01-20 00:31:38
Writing application : mkvmerge v4.0.0 ('The Stars were mine') сборка от Jun 6 2010 16:18:42
Writing library : libebml v1.0.0 + libmatroska v1.0.0
Video
ID : 1
Format : AVC
Format/Info : Advanced Video Codec
Format profile : High@L4.1
Format settings, CABAC : Yes
Format settings, ReFrames : 10 frames
Codec ID : V_MPEG4/ISO/AVC
Duration : 1h 35mn
Bit rate : 5 141 Kbps
Width : 1 280 pixels
Height : 536 pixels
Display aspect ratio : 2.40:1
Frame rate mode : Constant
Frame rate : 23.976 fps
Color space : YUV
Chroma subsampling : 4:2:0
Bit depth : 8 bits
Scan type : Progressive
Bits/(Pixel*Frame) : 0.313
Stream size : 3.31 GiB (73%)
Writing library : x264 core 138 r2356 a1d3d17
Encoding settings : cabac=1 / ref=10 / deblock=1:-3:-3 / analyse=0x3:0x113 / me=umh / subme=10 / psy=1 / psy_rd=1.05:0.10 / mixed_ref=1 / me_range=32 / chroma_me=1 / trellis=2 / 8x8dct=1 / cqm=0 / deadzone=21,11 / fast_pskip=0 / chroma_qp_offset=-2 / threads=18 / lookahead_threads=1 / sliced_threads=0 / nr=0 / decimate=1 / interlaced=0 / bluray_compat=0 / constrained_intra=0 / bframes=6 / b_pyramid=2 / b_adapt=2 / b_bias=0 / direct=3 / weightb=1 / open_gop=0 / weightp=2 / keyint=250 / keyint_min=23 / scenecut=40 / intra_refresh=0 / rc=2pass / mbtree=0 / bitrate=5141 / ratetol=1.0 / qcomp=0.70 / qpmin=0 / qpmax=69 / qpstep=4 / cplxblur=20.0 / qblur=0.5 / ip_ratio=1.40 / pb_ratio=1.30 / aq=2:0.80
Language : English
Default : No
Forced : No
Audio #1
ID : 2
Format : AC-3
Format/Info : Audio Coding 3
Mode extension : CM (complete main)
Format settings, Endianness : Big
Codec ID : A_AC3
Duration : 1h 35mn
Bit rate mode : Constant
Bit rate : 192 Kbps
Channel(s) : 2 channels
Channel positions : Front: L R
Sampling rate : 48.0 KHz
Bit depth : 16 bits
Compression mode : Lossy
Stream size : 131 MiB (3%)
Language : Russian
Default : Yes
Forced : Yes
Audio #2
ID : 3
Format : DTS
Format/Info : Digital Theater Systems
Mode : 16
Format settings, Endianness : Big
Codec ID : A_DTS
Duration : 1h 35mn
Bit rate mode : Constant
Bit rate : 1 509 Kbps
Channel(s) : 6 channels
Channel positions : Front: L C R, Side: L R, LFE
Sampling rate : 48.0 KHz
Bit depth : 24 bits
Compression mode : Lossy
Delay relative to video : 11ms
Stream size : 1.01 GiB (22%)
Language : English
Default : No
Forced : No
Text #1
ID : 4
Format : UTF-8
Codec ID : S_TEXT/UTF8
Codec ID/Info : UTF-8 Plain Text
Title : MrCatRabbit
Language : Russian
Default : No
Forced : No
Text #2
ID : 5
Format : UTF-8
Codec ID : S_TEXT/UTF8
Codec ID/Info : UTF-8 Plain Text
Language : English
Default : No
Forced : No

Скриншоты


_________________
Показать сообщения:    

Текущее время: Сегодня 21:13

Часовой пояс: GMT



Вы не можете начинать темы
Вы не можете отвечать на сообщения
Вы не можете редактировать свои сообщения
Вы не можете удалять свои сообщения
Вы не можете голосовать в опросах
Вы не можете прикреплять файлы к сообщениям
Вы не можете скачивать файлы
Наши партнеры: интернет магазин Ивановского трикотажа textilla.ru