Ивановский Торрент трекер
Яндекс.Погода
 

[Цитировать]
HUNTER

Королевский блеск / Royal Flash
Страна: США, Великобритания
Жанр: комедия
Год выпуска: 1975
Продолжительность: 01:37:07
Перевод: Профессиональный (многоголосый закадровый) 1 канал
Cубтитры: нет
Оригинальная аудиодорожка: нет
Режиссер: Ричард Лестер / Richard Lester
В ролях: Малкольм МакДауэлл, Алан Бейтс, Флоринда Болкан, Оливер Рид, Том Белл, Джосс Экленд, Кристофер Кейзнов, Генри Купер, Лайонел Джеффрис, Аластер Сим
Описание: Британский капитан Гарри Флэшмен, хитрый, трусливый и любвеобильный позер отчаянно пытается проникнуть в высшее европейское общество.
Коварные Отто Фон Бисмарк и Руди Фон Штернберг решают использовать капитана в своих политических интригах. Ему предстоит выдать себя за прусского дворянина и жениться на красивой герцогине Ирме...
Сэмпл: http://multi-up.com/1122982
Тип релиза: HDTV 1080i
Контейнер: TS
Видео: AVC, 1920x1080 (16:9), 25.000 fps, 6 440 Kbps (0.124 bit/pixel)
Аудио: MP2, 48.0 KHz, 2 ch, 192 Kbps, CBR (Russian)

MediaInfo

бщее
Идентификатор : 7 (0x7)
Полное имя : M:\Королевский блеск.ts
Формат : MPEG-TS
Размер файла : 4,73 Гбайт
Продолжительность : 1 ч. 37 м.
Режим общего битрейта : Переменный
Общий поток : 6979 Кбит/сек
Видео
Идентификатор : 2141 (0x85D)
Идентификатор меню : 21004 (0x520C)
Формат : AVC
Формат/Информация : Advanced Video Codec
Профиль формата : Main@L4
Параметр CABAC формата : Да
Параметр ReFrames формата : 4 кадра
Идентификатор кодека : 27
Продолжительность : 1 ч. 37 м.
Битрейт : 6440 Кбит/сек
Ширина : 1920 пикселей
Высота : 1080 пикселей
Соотношение сторон : 16:9
Частота кадров : 25,000 кадров/сек
Цветовое пространство : YUV
Субдискретизация насыщенности : 4:2:0
Битовая глубина : 8 бит
Тип развёртки : Чересстрочная
Метод сохранения типа развёртки : Раздельные поля
Порядок развёртки : Верхнее поле первое
Бит/(Пиксели*Кадры) : 0.124
Размер потока : 4,37 Гбайт (92%)
Цветовой диапазон : Limited
Основные цвета : BT.709
Характеристики трансфера : BT.709
Коэффициенты матрицы : BT.709
Аудио
Идентификатор : 2142 (0x85E)
Идентификатор меню : 21004 (0x520C)
Формат : MPEG Audio
Версия формата : Version 1
Профиль формата : Layer 2
Идентификатор кодека : 4
Продолжительность : 1 ч. 37 м.
Вид битрейта : Постоянный
Битрейт : 192 Кбит/сек
Каналы : 2 канала
Частота : 48,0 КГц
Метод сжатия : С потерями
Задержка видео : -18 мс.
Размер потока : 133 Мбайт (3%)
Язык : Russian

Скриншоты

Показать сообщения:    

Текущее время: 21-Окт 09:38

Часовой пояс: UTC - 1


Вы не можете начинать темы
Вы не можете отвечать на сообщения
Вы не можете редактировать свои сообщения
Вы не можете удалять свои сообщения
Вы не можете голосовать в опросах
Вы не можете прикреплять файлы к сообщениям
Вы не можете скачивать файлы

!ВНИМАНИЕ!
Сайт не предоставляет электронные версии произведений, а занимается лишь коллекционированием и каталогизацией ссылок, присылаемых и публикуемых на форуме нашими читателями. Если вы являетесь правообладателем какого-либо представленного материала и не желаете, чтобы ссылка на него находилась в нашем каталоге, свяжитесь с нами, и мы незамедлительно удалим ее. Файлы для обмена на трекере предоставлены пользователями сайта, и администрация не несет ответственности за их содержание. Просьба не заливать файлы, защищенные авторскими правами, а также файлы нелегального содержания!