Ивановский Торрент трекер
Яндекс.Погода
Статистика раздачи
Размер:  6.23 GB   |    Зарегистрирован:  2 года   |    Скачан:  0 раз

Полного источника не было: Никогда

 
     
 
 
 

[Цитировать]
HUNTER

Корнуэль / Cornouaille
Страна: Франция
Жанр: драма
Год выпуска: 2012
Продолжительность: 01:31:38
Перевод: Профессиональный (многоголосый закадровый)
Cубтитры: нет
Оригинальная аудиодорожка: нет
Режиссер: Анн Ле Ни / Anne Le Ny
В ролях: Ванесса Паради, Самюэль Ле Бьян, Жонатан Заккаи, Лоран Стокер, Мартин Жобер, Катрин Винатье, Аврора Клеман, Тибо Винсон, Томас Бланчард, Дамьен Дорсаз
Описание: Молодая девушка получает в наследство семейный исторический дом на побережье Бретани. В этом доме она не была с тех пор, как там умер ее отец, когда ей было 12 лет.
Сэмпл: http://multi-up.com/1078241
Кинопоиск: http://www.kinopoisk.ru/film/634237/
Тип релиза: HDTV 1080i
Контейнер: TS
Видео: AVC/H.264, 1920x1080 (16:9), 8602 Кбит/сек, 25.000 fps
Аудио 1: русский, MP2, 2 ch, 48,0 КГц, 192 Кбит/сек
Аудио 2: русский, AC3, 6 ch, 48,0 КГц, 448 Кбит/сек

MediaInfo

Общее
Идентификатор : 1 (0x1)
Полное имя : C:\Users\Romik\Desktop\Корнуэль (HDTV1080i).ts
Формат : MPEG-TS
Размер файла : 6,23 Гбайт
Продолжительность : 1 ч. 31 м.
Режим общего битрейта : Переменный
Общий поток : 9729 Кбит/сек
Видео
Идентификатор : 3531 (0xDCB)
Идентификатор меню : 1 (0x1)
Формат : AVC
Формат/Информация : Advanced Video Codec
Профиль формата : Main@L4.0
Параметр CABAC формата : Да
Параметр ReFrames формата : 3 кадра
Идентификатор кодека : 27
Продолжительность : 1 ч. 31 м.
Битрейт : 8602 Кбит/сек
Ширина : 1920 пикселей
Высота : 1080 пикселей
Соотношение сторон : 16:9
Частота кадров : 25,000 кадров/сек
Стандарт вещания : Component
Цветовое пространство : YUV
Субдискретизация насыщенности : 4:2:0
Битовая глубина : 8 бит
Тип развёртки : Чересстрочная
Порядок развёртки : Верхнее поле первое
Бит/(Пиксели*Кадры) : 0.166
Размер потока : 5,50 Гбайт (88%)
Основные цвета : BT.709
Характеристики трансфера : BT.709
Коэффициенты матрицы : BT.709
colour_range : Limited
Аудио #1
Идентификатор : 3532 (0xDCC)
Идентификатор меню : 1 (0x1)
Формат : MPEG Audio
Версия формата : Version 1
Профиль формата : Layer 2
Идентификатор кодека : 3
Продолжительность : 1 ч. 31 м.
Вид битрейта : Постоянный
Битрейт : 192 Кбит/сек
Каналы : 2 канала
Частота : 48,0 КГц
Метод сжатия : С потерями
Размер потока : 126 Мбайт (2%)
Язык : Russian
Аудио #2
Идентификатор : 3533 (0xDCD)
Идентификатор меню : 1 (0x1)
Формат : AC-3
Формат/Информация : Audio Coding 3
Расширение режима : CM (complete main)
Параметр Endianness формата : Big
Идентификатор кодека : 6
Продолжительность : 1 ч. 31 м.
Вид битрейта : Постоянный
Битрейт : 448 Кбит/сек
Каналы : 6 каналов
Расположение каналов : Front: L C R, Side: L R, LFE
Частота : 48,0 КГц
Битовая глубина : 16 бит
Метод сжатия : С потерями
Размер потока : 294 Мбайт (5%)
Язык : Russian

Скриншоты меню

Скриншоты

[iv-torrents.ru].t51826.torrent
Торрент: Зарегистрирован [ 2015-12-06 22:51 ] · FF80428EA28B5C8FEF828F7F30578E1362237143

Скачать .torrent

Скачать

32 KB

Статус: проверено
Скачан: 0 раз
Размер: 6.23 GB
terms.php


Показать сообщения:    

Текущее время: 16-Дек 18:52

Часовой пояс: UTC ± 0


Вы не можете начинать темы
Вы не можете отвечать на сообщения
Вы не можете редактировать свои сообщения
Вы не можете удалять свои сообщения
Вы не можете голосовать в опросах
Вы не можете прикреплять файлы к сообщениям
Вы можете скачивать файлы

!ВНИМАНИЕ!
Сайт не предоставляет электронные версии произведений, а занимается лишь коллекционированием и каталогизацией ссылок, присылаемых и публикуемых на форуме нашими читателями. Если вы являетесь правообладателем какого-либо представленного материала и не желаете, чтобы ссылка на него находилась в нашем каталоге, свяжитесь с нами, и мы незамедлительно удалим ее. Файлы для обмена на трекере предоставлены пользователями сайта, и администрация не несет ответственности за их содержание. Просьба не заливать файлы, защищенные авторскими правами, а также файлы нелегального содержания!