Важное объявление!
У Нас Все раздачи мультитрекерные, при нуле пиров в релизах, можете смело вставать на закачку!
 
Автор Сообщение

HUNTER

Стаж:
4 года 7 месяцев
Сообщений:
61460

Репутация: 101

[+] [-]
Вне форума [Профиль] [ЛС]

Корни неба / The Roots of Heaven-
Год выпуска: 1958
Страна: США
Жанр: драма, приключения
Продолжительность: 02:06:25
Перевод: Субтитры
Оригинальная аудиодорожка: Английская
Cубтитры: Русские (ovasiliev)-Режиссер: Джон Хьюстон / John Huston
В ролях: Эррол Флинн, Жюльет Греко, Тревор Ховард, Эдди Альберт, Орсон Уэллс, Пол Лукас, Херберт Лом, Грегуар Аслан, Андре Люге, Фридрих фон Ледебур-Описание:
Экранизация одноименного романа Ромена Гари, удостоенного в 1956 году Гонкуровской премии.
Действие фильма разворачивается во Французской Экваториальной Африке. Идеалист Морель одержим идеей спасения популяции африканских слонов от полного исчезновения. Не найдя поддержки в обществе и у властей, он начинает собственную партизанскую войну, находя всё новых и новых сторонников.- | IMDb | Сэмпл-Качество: BDRip 1080p (HANDJOB)
Контейнер: MKV
Видео: x264, 1916x816 (2.35:1), 23.976 fps, 8458 kbps
Аудио: Английский DTS 2.0, 48 kHz, 1509 kbps, 24-bit
Формат субтитров: softsub (SRT)

Скриншоты


MI
General
Unique ID : 184837930431143952822028574601859849193 (0x8B0E7D91E7CB91D491CC0898568C5BE9)
Complete name : The roots of heaven.1958.1080p.BluRay.x264-HANDJOB.mkv
Format : Matroska
Format version : Version 2
File size : 8.97 GiB
Duration : 2h 6mn
Overall bit rate : 10.2 Mbps
Movie name : The Roots of Heaven / Корни неба (1958) – RuTracker
Encoded date : UTC 2015-03-18 20:49:50
Writing application : mkvmerge v7.5.0 ('Glass Culture') 64bit built on Jan 4 2015 16:48:44
Writing library : libebml v1.3.1 + libmatroska v1.4.2
Attachements : cover.jpg
Video
ID : 1
Format : AVC
Format/Info : Advanced Video Codec
Format profile : High@L4.0
Format settings, CABAC : Yes
Format settings, ReFrames : 4 frames
Codec ID : V_MPEG4/ISO/AVC
Duration : 2h 6mn
Bit rate : 8 450 Kbps
Width : 1 916 pixels
Height : 816 pixels
Display aspect ratio : 2.35:1
Frame rate mode : Constant
Frame rate : 23.976 fps
Color space : YUV
Chroma subsampling : 4:2:0
Bit depth : 8 bits
Scan type : Progressive
Bits/(Pixel*Frame) : 0.225
Stream size : 7.46 GiB (83%)
Title : The roots of heaven.1958.1080p.BluRay.x264-HANDJOB
Writing library : x264 core 120
Encoding settings : cabac=1 / ref=4 / deblock=1:-3:-3 / analyse=0x3:0x133 / me=umh / subme=9 / psy=1 / psy_rd=1.00:0.00 / mixed_ref=1 / me_range=32 / chroma_me=1 / trellis=2 / 8x8dct=1 / cqm=0 / deadzone=21,11 / fast_pskip=0 / chroma_qp_offset=-2 / threads=6 / sliced_threads=0 / nr=0 / decimate=1 / interlaced=0 / bluray_compat=0 / constrained_intra=0 / bframes=5 / b_pyramid=2 / b_adapt=2 / b_bias=0 / direct=3 / weightb=1 / open_gop=0 / weightp=2 / keyint=240 / keyint_min=24 / scenecut=40 / intra_refresh=0 / rc_lookahead=50 / rc=crf / mbtree=1 / crf=20.8 / qcomp=0.60 / qpmin=3 / qpmax=69 / qpstep=4 / ip_ratio=1.40 / aq=1:1.00
Language : English
Default : Yes
Forced : No
Color primaries : BT.709
Transfer characteristics : BT.709
Matrix coefficients : BT.709
Color range : Limited
Audio
ID : 2
Format : DTS
Format/Info : Digital Theater Systems
Mode : 16
Format settings, Endianness : Big
Codec ID : A_DTS
Duration : 2h 6mn
Bit rate mode : Constant
Bit rate : 1 509 Kbps
Channel(s) : 2 channels
Channel positions : Front: L R
Sampling rate : 48.0 KHz
Bit depth : 24 bits
Compression mode : Lossy
Stream size : 1.33 GiB (15%)
Language : English
Default : Yes
Forced : No
Text
ID : 3
Format : UTF-8
Codec ID : S_TEXT/UTF8
Codec ID/Info : UTF-8 Plain Text
Title : ovasiliev
Language : Russian
Default : Yes
Forced : No
Menu
00:00:00.000 : en:Chapter 01
00:08:56.994 : en:Chapter 02
00:13:48.661 : en:Chapter 03
00:25:27.609 : en:Chapter 04
00:32:47.548 : en:Chapter 05
00:37:36.587 : en:Chapter 06
00:43:17.970 : en:Chapter 07
00:51:53.193 : en:Chapter 08
00:56:07.113 : en:Chapter 09
01:06:04.877 : en:Chapter 10
01:17:25.307 : en:Chapter 11
01:29:24.984 : en:Chapter 12
01:43:05.095 : en:Chapter 13
01:50:48.725 : en:Chapter 14
01:56:28.314 : en:Chapter 15
02:05:16.258 : en:Chapter 16

_________________
Показать сообщения:    

Текущее время: Сегодня 10:43

Часовой пояс: GMT



Вы не можете начинать темы
Вы не можете отвечать на сообщения
Вы не можете редактировать свои сообщения
Вы не можете удалять свои сообщения
Вы не можете голосовать в опросах
Вы не можете прикреплять файлы к сообщениям
Вы не можете скачивать файлы
Наши партнеры: интернет магазин Ивановского трикотажа textilla.ru