Ивановский Торрент трекер
Яндекс.Погода
 

[Цитировать]
HUNTER

Коридоры крови / Corridors of Blood
Страна: Великобритания
Жанр: ужасы, триллер, драма, криминал
Год выпуска: 1958
Продолжительность: 01:26:58
Перевод: Авторский (одноголосый закадровый) - Сергей Кузнецов
Cубтитры: русские, английские
Оригинальная аудиодорожка: английский
Режиссер: Роберт Дэй / Robert Day
В ролях: Борис Карлофф, Бетта Ст. Джон, Кристофер Ли, Финлэй Карри, Эдриенн Корри, Френсис Де Вулф, Френсис Мэтьюз, Фрэнк Петтинджелл, Бэзил Дигнэм, Мэриэн Спенсер
Описание: Стремясь облегчить страдания своих пациентов, врач Болтон разрабатывает принципиально новый вид анестетика. Но поскольку его ключевым ингредиентом является опиум, вскоре у самого Болтона развивается сильнейшая зависимость от него.
Доп. информация:


За дорожку с переводом спасибо Argento87
Сэмпл: http://sendfile.su/1052950
Тип релиза: WEB-DL 720p
Контейнер: MKV
Видео: AVC, 952x720, L3.1, 23.976fps, 4129kbps
Аудио 1: Russian: AC3, 48000Hz, 2ch, 192kbps
Аудио 2: English: AC3, 48000Hz, 1ch, 192kbps - DVD
Аудио 3: English: AAC, 48000Hz, 2ch, 160kbps - WEB-DL
Формат субтитров: softsub (SRT)

MediaInfo

Общее
Уникальный идентификатор : 249881855219787366396826972939182435177 (0xBBFD7EA81C9EB08BA4075E4319446B69)
Полное имя : T:\Corridors of Blood (WEB-DL 720p).mkv
Формат : Matroska
Версия формата : Version 4 / Version 2
Размер файла : 2,84 Гбайт
Продолжительность : 1 ч. 26 м.
Общий поток : 4674 Кбит/сек
Название фильма : Corridors of Blood for rutracker.org
Дата кодирования : UTC 2014-11-25 08:39:04
Программа кодирования : mkvmerge v6.9.1 ('Blue Panther') 64bit built on Apr 18 2014 18:23:38
Библиотека кодирования : libebml v1.3.0 + libmatroska v1.4.1
Видео
Идентификатор : 1
Формат : AVC
Формат/Информация : Advanced Video Codec
Профиль формата : Main@L3.1
Параметр CABAC формата : Нет
Параметр ReFrames формата : 2 кадра
Идентификатор кодека : V_MPEG4/ISO/AVC
Продолжительность : 1 ч. 26 м.
Ширина : 952 пикселя
Высота : 720 пикселей
Соотношение сторон : 4:3
Режим частоты кадров : Постоянный
Частота кадров : 23,976 кадра/сек
Цветовое пространство : YUV
Субдискретизация насыщенности : 4:2:0
Битовая глубина : 8 бит
Тип развёртки : Прогрессивная
Язык : English
Default : Да
Forced : Нет
Основные цвета : BT.709
Характеристики трансфера : BT.709
Коэффициенты матрицы : BT.709
Аудио #1
Идентификатор : 2
Формат : AC-3
Формат/Информация : Audio Coding 3
Расширение режима : CM (complete main)
Параметр Endianness формата : Big
Идентификатор кодека : A_AC3
Продолжительность : 1 ч. 26 м.
Вид битрейта : Постоянный
Битрейт : 192 Кбит/сек
Каналы : 2 канала
Расположение каналов : Front: L R
Частота : 48,0 КГц
Битовая глубина : 16 бит
Метод сжатия : С потерями
Размер потока : 119 Мбайт (4%)
Заголовок : Кузнецов
Язык : Russian
Default : Да
Forced : Нет
Аудио #2
Идентификатор : 3
Формат : AC-3
Формат/Информация : Audio Coding 3
Расширение режима : CM (complete main)
Параметр Endianness формата : Big
Идентификатор кодека : A_AC3
Продолжительность : 1 ч. 26 м.
Вид битрейта : Постоянный
Битрейт : 192 Кбит/сек
Каналы : 1 канал
Расположение каналов : Front: C
Частота : 48,0 КГц
Битовая глубина : 16 бит
Метод сжатия : С потерями
Размер потока : 119 Мбайт (4%)
Заголовок : DVD
Язык : English
Default : Нет
Forced : Нет
Аудио #3
Идентификатор : 4
Формат : AAC
Формат/Информация : Advanced Audio Codec
Профиль формата : LC
Идентификатор кодека : A_AAC
Продолжительность : 1 ч. 26 м.
Каналы : 2 канала
Расположение каналов : Front: L R
Частота : 48,0 КГц
Метод сжатия : С потерями
Заголовок : WEB-DL
Язык : English
Default : Нет
Forced : Нет
Текст #1
Идентификатор : 5
Формат : UTF-8
Идентификатор кодека : S_TEXT/UTF8
Идентификатор кодека/Информация : UTF-8 Plain Text
Язык : Russian
Default : Нет
Forced : Нет
Текст #2
Идентификатор : 6
Формат : UTF-8
Идентификатор кодека : S_TEXT/UTF8
Идентификатор кодека/Информация : UTF-8 Plain Text
Язык : English
Default : Нет
Forced : Нет
Меню
00:00:00.000 : en:Pain and the knife
00:07:00.000 : en:Charity patients
00:16:11.000 : en:Bolton's experiment
00:22:04.000 : en:Demonstration
00:29:12.000 : en:New and improved
00:34:31.000 : en:The Seven Dials
00:38:38.000 : en:Missing notebook
00:46:11.000 : en:"A favor for a favor"
00:51:51.000 : en:Not himself
01:01:23.000 : en:Suspended
01:08:18.000 : en:Break-in
01:11:51.000 : en:Under investigation
01:14:59.000 : en:Raid!
01:23:48.000 : en:"I beg of you to carry on"

Скриншоты



Показать сообщения:    

Текущее время: 14-Дек 16:45

Часовой пояс: UTC ± 0


Вы не можете начинать темы
Вы не можете отвечать на сообщения
Вы не можете редактировать свои сообщения
Вы не можете удалять свои сообщения
Вы не можете голосовать в опросах
Вы не можете прикреплять файлы к сообщениям
Вы не можете скачивать файлы

!ВНИМАНИЕ!
Сайт не предоставляет электронные версии произведений, а занимается лишь коллекционированием и каталогизацией ссылок, присылаемых и публикуемых на форуме нашими читателями. Если вы являетесь правообладателем какого-либо представленного материала и не желаете, чтобы ссылка на него находилась в нашем каталоге, свяжитесь с нами, и мы незамедлительно удалим ее. Файлы для обмена на трекере предоставлены пользователями сайта, и администрация не несет ответственности за их содержание. Просьба не заливать файлы, защищенные авторскими правами, а также файлы нелегального содержания!