Кордебалет / A Chorus Line (Ричард Аттенборо / Richard Attenborough) [1985, США, Драма, Музыкальный, BDRip 1080p] Dub + Original Eng + Sub Eng :: Ивановский Торрент трекер
Важное объявление!
У Нас Все раздачи мультитрекерные, при нуле пиров в релизах, можете смело вставать на закачку!
 
Автор Сообщение

HUNTER

Стаж:
4 года 11 месяцев
Сообщений:
66047

Репутация: 101

[+] [-]
Вне форума [Профиль] [ЛС]

Кордебалет / A Chorus Line
Страна: США
Студия: MGM
Жанр: Драма, Музыкальный
Год выпуска: 1985
Продолжительность: 01:57:03
Перевод: Профессиональный (дублированный)
Cубтитры: английские
Оригинальная аудиодорожка: английский
Режиссер: Ричард Аттенборо / Richard Attenborough
В ролях: Майкл Дуглас, Майкл Блевинс, Ямил Боргес, Ян Ган Бойд, Шарон Браун, Грегг Бёрдж, Камерон Инглиш, Тони Филдс, Николь Фосс, Вики Фредерик, Мишель Джонстон, Дженет Джонс, Пэм Клингер, Одри Лэндерс (Michael Douglas, Michael Blevins, Yamil Borges, Jan Gan Boyd, Sharon Brown, Gregg Burge, Cameron English, Tony Fields, Nicole Fosse, Vicki Frederick, Michelle Johnston, Janet Jones, Pam Klinger, Audrey Landers)
Описание: Путь в балет начинается на пустой, залитой ослепительно белым светом сцене одного из бродвейских театров, где под пристальным взглядом режиссера и хореографа Зака целая вереница молодых танцовщиков и танцовщиц пытается пройти пробы, чтобы получить одно из восьми мест в балетной группе нового бродвейского шоу. Напряжение возрастает, когда остается всего шестнадцать претендентов. И тогда Зак и его помощник Ларри заставляют их рассказать о себе…
Доп. информация: Автор рипа - AmPirCo. Дублированный перевод взят из раздачи Directorent. Сохранено разбиение на главы оригинального BD.
Сэмпл
Тип релиза: BDRip 1080p
Контейнер: MKV
Видео: 1920x816p, 23,976 fps, x264, 9673 kbps
Аудио 1: Russian (Dolby AC3, 2 ch) 192 Kbps / 48 000 Hz
Аудио 2: English (DTS, 2 ch) 1509 Kbps / 48 000 Hz
Субтитры: English

MediaInfo

Уникальный идентификатор : 210996542125164257638971422538601383501 (0x9EBC74B38280140D8C2240FA81FCC64D)
Полное имя : A.Chorus.Line.(1985).BDrip.1080p.x264.RUS.AC3.ENG.DTS.mkv
Формат : Matroska
Версия формата : Version 4 / Version 2
Размер файла : 9,35 Гбайт
Продолжительность : 1 ч. 57 м.
Общий поток : 11,4 Мбит/сек
Название фильма : A Chorus Line (1985) BDrip 1080p
Дата кодирования : UTC 2014-08-16 12:01:50
Программа кодирования : mkvmerge v7.1.0 ('Good Love') 32bit built on Jul 27 2014 12:59:18
Библиотека кодирования : libebml v1.3.0 + libmatroska v1.4.1
_STATISTICS_WRITING_APP : mkvmerge v7.1.0 ('Good Love') 32bit built on Jul 27 2014 12:59:18
_STATISTICS_WRITING_DATE_UTC : 2014-08-16 12:01:50
_STATISTICS_TAGS : BPS DURATION NUMBER_OF_FRAMES NUMBER_OF_BYTES
DURATION : 01:57:38.059000000
NUMBER_OF_FRAMES : 661693
NUMBER_OF_BYTES : 1331326316
Видео
Идентификатор : 1
Формат : AVC
Формат/Информация : Advanced Video Codec
Профиль формата : High@L4.1
Параметр CABAC формата : Да
Параметр ReFrames формата : 5 кадров
Идентификатор кодека : V_MPEG4/ISO/AVC
Продолжительность : 1 ч. 57 м.
Битрейт : 9673 Кбит/сек
Ширина : 1920 пикселей
Высота : 816 пикселей
Соотношение сторон : 2,35:1
Режим частоты кадров : Постоянный
Частота кадров : 23,976 кадра/сек
Цветовое пространство : YUV
Субдискретизация насыщенности : 4:2:0
Битовая глубина : 8 бит
Тип развёртки : Прогрессивная
Бит/(Пиксели*Кадры) : 0.258
Размер потока : 7,76 Гбайт (83%)
Библиотека кодирования : x264 core 142 r2431 ac76440
Настройки программы : cabac=1 / ref=5 / deblock=1:-3:-3 / analyse=0x3:0x113 / me=umh / subme=9 / psy=1 / psy_rd=1.00:0.00 / mixed_ref=1 / me_range=32 / chroma_me=1 / trellis=2 / 8x8dct=1 / cqm=0 / deadzone=21,11 / fast_pskip=0 / chroma_qp_offset=-2 / threads=6 / lookahead_threads=1 / sliced_threads=0 / nr=0 / decimate=1 / interlaced=0 / bluray_compat=0 / constrained_intra=0 / bframes=6 / b_pyramid=2 / b_adapt=2 / b_bias=0 / direct=3 / weightb=1 / open_gop=0 / weightp=2 / keyint=240 / keyint_min=23 / scenecut=40 / intra_refresh=0 / rc=2pass / mbtree=0 / bitrate=9673 / ratetol=1.0 / qcomp=0.60 / qpmin=10 / qpmax=51 / qpstep=4 / cplxblur=20.0 / qblur=0.5 / ip_ratio=1.40 / pb_ratio=1.30 / aq=1:1.00
Default : Да
Forced : Нет
_STATISTICS_WRITING_APP : mkvmerge v7.1.0 ('Good Love') 32bit built on Jul 27 2014 12:59:18
_STATISTICS_WRITING_DATE_UTC : 2014-08-16 12:01:50
_STATISTICS_TAGS : BPS DURATION NUMBER_OF_FRAMES NUMBER_OF_BYTES
DURATION : 01:57:38.010000000
NUMBER_OF_FRAMES : 169223
NUMBER_OF_BYTES : 8532075761
Аудио #1
Идентификатор : 2
Формат : AC-3
Формат/Информация : Audio Coding 3
Расширение режима : CM (complete main)
Параметр Endianness формата : Big
Идентификатор кодека : A_AC3
Продолжительность : 1 ч. 57 м.
Вид битрейта : Постоянный
Битрейт : 192 Кбит/сек
Каналы : 2 канала
Расположение каналов : Front: L R
Частота : 48,0 КГц
Битовая глубина : 16 бит
Метод сжатия : С потерями
Размер потока : 162 Мбайт (2%)
Заголовок : Дублированный
Язык : Russian
Default : Да
Forced : Нет
Аудио #2
Идентификатор : 3
Формат : DTS
Формат/Информация : Digital Theater Systems
Режим : 16
Параметр Endianness формата : Big
Идентификатор кодека : A_DTS
Продолжительность : 1 ч. 57 м.
Вид битрейта : Постоянный
Битрейт : 1509 Кбит/сек
Каналы : 2 канала
Расположение каналов : Front: L R
Частота : 48,0 КГц
Битовая глубина : 24 бит
Метод сжатия : С потерями
Размер потока : 1,24 Гбайт (13%)
Заголовок : Original
Язык : English
Default : Нет
Forced : Нет
Текст
Идентификатор : 4
Формат : UTF-8
Идентификатор кодека : S_TEXT/UTF8
Идентификатор кодека/Информация : UTF-8 Plain Text
Язык : English
Default : Нет
Forced : Нет
Меню
00:00:00.000 : en:Chapter 1
00:06:15.875 : en:Chapter 2
00:08:52.114 : en:Chapter 3
00:13:31.268 : en:Chapter 4
00:19:49.813 : en:Chapter 5
00:22:43.403 : en:Chapter 6
00:23:41.711 : en:Chapter 7
00:29:44.282 : en:Chapter 8
00:34:07.378 : en:Chapter 9
00:38:11.914 : en:Chapter 10
00:40:07.905 : en:Chapter 11
00:48:06.508 : en:Chapter 12
00:50:34.531 : en:Chapter 13
00:53:46.389 : en:Chapter 14
01:00:13.776 : en:Chapter 15
01:04:56.893 : en:Chapter 16
01:06:53.342 : en:Chapter 17
01:16:04.893 : en:Chapter 18
01:22:36.701 : en:Chapter 19
01:27:55.019 : en:Chapter 20
01:37:02.733 : en:Chapter 21
01:39:39.598 : en:Chapter 22
01:44:56.581 : en:Chapter 23
01:49:53.628 : en:Chapter 24

Скриншоты


_________________
Показать сообщения:    

Текущее время: Сегодня 10:43

Часовой пояс: GMT



Вы не можете начинать темы
Вы не можете отвечать на сообщения
Вы не можете редактировать свои сообщения
Вы не можете удалять свои сообщения
Вы не можете голосовать в опросах
Вы не можете прикреплять файлы к сообщениям
Вы не можете скачивать файлы