Ивановский Торрент трекер
Яндекс.Погода
 

[Цитировать]
HUNTER

Коралина в стране кошмаровCoraline«Бойтесь своих желаний»- Страна: США
Жанр: фэнтези, триллер
Продолжительность: 01:40:36
Год выпуска: 2009
Перевод: Профессиональный (дублированный)
Перевод 2: Профессиональный (Двухголосый закадровый)
Перевод 3: Авторский (одноголосый закадровый) Немахов
Перевод 4 : Профессиональный (дублированный) Ukr
Русские субтитры: есть
Режиссёр: Генри Селик / Henry Selick
Роли озвучивали: Дакота Фаннинг, Кит Дэвид, Тери Хэтчер, Дженнифер Сондерс, Дон Френч, Джон Ходжмэн, Роберт Бэйли мл., Иэн МакШейн, Аанха Нил, Джордж Селик
Роли дублировали: Анна Штукатурова, Владимир Зайцев, Елена Соловьева, Елена Бушуева, Людмила Гнилова-ОписаниеКоралина, маленькая девочка, попадает в другой мир, скрытый за секретной дверцей. Этот мир — ее альтернативная жизнь, которая не перестает ее радовать, все здесь хорошо, но только до поры до времени. Однажды она понимает, что ее настоящим родителям за ее проделки угрожает смертельная опасность. Коралине придется найти выход из мира, наполненного призраками, в реальную жизнь…-Сэмпл

IMDb: 7.70 (120 983)
Качество: BDRip-AVC BDRemux 1080p -Azureus-
Формат: MKV
Видео: AVC 3166 Kbps 1152 x 624 (1.846) 23.976 fps
Аудио: AC-3 384 Kbps 6 channels, 48.0 KHz DUB Rus
Аудио 2: AC-3 384 Kbps 6 channels, 48.0 KHz DVO
Аудио 3: AC-3 384 Kbps 6 channels, 48.0 KHz AVO Немахов
Аудио 4: AC-3 384 Kbps 6 channels, 48.0 KHz DUB Ukr
Аудио 5: AC-3 384 Kbps 6 channels, 48.0 KHz Eng
Субтитры: русские (full, forced), украинские (full, forced), английские (full, SDH)

MI | Log

Log
x264 [info]: frame I:1105 Avg QP:15.25 size:105755
x264 [info]: frame P:36743 Avg QP:17.04 size: 34562
x264 [info]: frame B:106876 Avg QP:19.96 size: 10081
x264 [info]: consecutive B-frames: 2.4% 4.0% 10.9% 48.7% 13.5% 14.9% 2.9% 1.8% 0.2% 0.2% 0.1% 0.1% 0.0% 0.0% 0.1%
x264 [info]: mb I I16..4: 7.5% 70.3% 22.2%
x264 [info]: mb P I16..4: 3.1% 7.7% 2.1% P16..4: 30.7% 32.3% 12.6% 2.9% 0.5% skip: 8.0%
x264 [info]: mb B I16..4: 0.8% 0.9% 0.3% B16..8: 31.8% 16.9% 3.2% direct: 3.5% skip:42.6% L0:40.4% L1:49.0% BI:10.6%
x264 [info]: 8x8 transform intra:56.8% inter:49.9%
x264 [info]: coded y,uvDC,uvAC intra: 70.6% 88.6% 76.5% inter: 17.0% 16.4% 5.8%
x264 [info]: i16 v,h,dc,p: 86% 3% 3% 8%
x264 [info]: i8 v,h,dc,ddl,ddr,vr,hd,vl,hu: 9% 8% 9% 10% 13% 12% 13% 12% 14%
x264 [info]: i4 v,h,dc,ddl,ddr,vr,hd,vl,hu: 9% 7% 6% 10% 15% 14% 14% 12% 14%
x264 [info]: i8c dc,h,v,p: 48% 22% 16% 14%
x264 [info]: Weighted P-Frames: Y:7.3% UV:5.0%
x264 [info]: ref P L0: 51.4% 9.1% 16.1% 5.5% 4.5% 3.4% 3.3% 1.7% 1.8% 1.4% 1.5% 0.3% 0.0%
x264 [info]: ref B L0: 74.9% 10.6% 4.9% 2.6% 1.8% 1.7% 1.6% 0.9% 0.7% 0.3%
x264 [info]: ref B L1: 93.6% 6.4%
x264 [info]: kb/s:3265.92
x264 [total]: encoded 144724 frames, 7.52 fps, 3265.92 kb/s, duration 5:20:32.75
Format                                   : MatroskaFormat version                           : Version 4 / Version 2File size                                : 3.65 GiBDuration                                 : 1h 40mnOverall bit rate                         : 5 189 KbpsEncoded date                             : UTC 2014-12-30 22:20:31Writing application                      : mkvmerge v6.7.0 ('Back to the Ground') 32bit built on Jan  8 2014 15:03:17Writing library                          : libebml v1.3.0 + libmatroska v1.4.1
VideoID : 1Format : AVCFormat/Info : Advanced Video CodecFormat profile : High@L4.1Format settings, CABAC : YesFormat settings, ReFrames : 11 framesCodec ID : V_MPEG4/ISO/AVCDuration : 1h 40mnBit rate : 3 166 KbpsWidth : 1 152 pixelsHeight : 624 pixelsDisplay aspect ratio : 1.85:1Frame rate mode : ConstantFrame rate : 23.976 fpsColor space : YUVChroma subsampling : 4:2:0Bit depth : 8 bitsScan type : ProgressiveBits/(Pixel*Frame) : 0.184Stream size : 2.22 GiB (61%)Title : Coraline [rutracker.org]Writing library : x264 core 144 r2525kMod 40bb568Encoding settings : cabac=1 / ref=11 / deblock=1:-2:-1 / analyse=0x3:0x133 / me=umh / subme=11 / psy=1 / fade_compensate=0.00 / psy_rd=1.00:0.05 / mixed_ref=1 / me_range=48 / chroma_me=1 / trellis=2 / 8x8dct=1 / cqm=0 / deadzone=21,11 / fast_pskip=0 / chroma_qp_offset=-3 / threads=12 / lookahead_threads=3 / sliced_threads=0 / nr=0 / decimate=1 / interlaced=0 / bluray_compat=0 / constrained_intra=0 / fgo=0 / bframes=14 / b_pyramid=2 / b_adapt=2 / b_bias=0 / direct=1 / weightb=1 / open_gop=0 / weightp=2 / keyint=250 / keyint_min=23 / scenecut=40 / intra_refresh=0 / rc_lookahead=60 / rc=crf / mbtree=0 / crf=18.5000 / qcomp=0.60 / qpmin=0 / qpmax=69 / qpstep=4 / vbv_maxrate=50000 / vbv_bufsize=62500 / crf_max=0.0 / nal_hrd=none / filler=0 / ip_ratio=1.40 / pb_ratio=1.30 / aq=3:0.90Language : EnglishDefault : YesForced : No
Audio #1ID : 2Format : AC-3Format/Info : Audio Coding 3Mode extension : CM (complete main)Format settings, Endianness : BigCodec ID : A_AC3Duration : 1h 40mnBit rate mode : ConstantBit rate : 384 KbpsChannel(s) : 6 channelsChannel positions : Front: L C R, Side: L R, LFESampling rate : 48.0 KHzBit depth : 16 bitsCompression mode : LossyStream size : 276 MiB (7%)Title : DubLanguage : RussianDefault : YesForced : No
Audio #2ID : 3Format : AC-3Format/Info : Audio Coding 3Mode extension : CM (complete main)Format settings, Endianness : BigCodec ID : A_AC3Duration : 1h 40mnBit rate mode : ConstantBit rate : 384 KbpsChannel(s) : 6 channelsChannel positions : Front: L C R, Side: L R, LFESampling rate : 48.0 KHzBit depth : 16 bitsCompression mode : LossyStream size : 276 MiB (7%)Title : DVOLanguage : RussianDefault : NoForced : No
Audio #3ID : 4Format : AC-3Format/Info : Audio Coding 3Mode extension : CM (complete main)Format settings, Endianness : BigCodec ID : A_AC3Duration : 1h 40mnBit rate mode : ConstantBit rate : 384 KbpsChannel(s) : 6 channelsChannel positions : Front: L C R, Side: L R, LFESampling rate : 48.0 KHzBit depth : 16 bitsCompression mode : LossyStream size : 276 MiB (7%)Title : AVO [Nemahov]Language : RussianDefault : NoForced : No
Audio #4ID : 5Format : AC-3Format/Info : Audio Coding 3Mode extension : CM (complete main)Format settings, Endianness : BigCodec ID : A_AC3Duration : 1h 40mnBit rate mode : ConstantBit rate : 384 KbpsChannel(s) : 6 channelsChannel positions : Front: L C R, Side: L R, LFESampling rate : 48.0 KHzBit depth : 16 bitsCompression mode : LossyStream size : 276 MiB (7%)Title : DUBLanguage : UkrainianDefault : NoForced : No
Audio #5ID : 6Format : AC-3Format/Info : Audio Coding 3Mode extension : CM (complete main)Format settings, Endianness : BigCodec ID : A_AC3Duration : 1h 40mnBit rate mode : ConstantBit rate : 384 KbpsChannel(s) : 6 channelsChannel positions : Front: L C R, Side: L R, LFESampling rate : 48.0 KHzBit depth : 16 bitsCompression mode : LossyStream size : 276 MiB (7%)Title : OriginalLanguage : EnglishDefault : NoForced : No
Text #1ID : 7Format : UTF-8Codec ID : S_TEXT/UTF8Codec ID/Info : UTF-8 Plain TextTitle : ForcedLanguage : RussianDefault : YesForced : No
Text #2ID : 8Format : UTF-8Codec ID : S_TEXT/UTF8Codec ID/Info : UTF-8 Plain TextTitle : FullLanguage : RussianDefault : NoForced : No
Text #3ID : 9Format : UTF-8Codec ID : S_TEXT/UTF8Codec ID/Info : UTF-8 Plain TextTitle : ForcedLanguage : UkrainianDefault : NoForced : No
Text #4ID : 10Format : UTF-8Codec ID : S_TEXT/UTF8Codec ID/Info : UTF-8 Plain TextTitle : FullLanguage : UkrainianDefault : NoForced : No
Text #5ID : 11Format : UTF-8Codec ID : S_TEXT/UTF8Codec ID/Info : UTF-8 Plain TextLanguage : EnglishDefault : NoForced : No
Text #6ID : 12Format : UTF-8Codec ID : S_TEXT/UTF8Codec ID/Info : UTF-8 Plain TextTitle : SDHLanguage : EnglishDefault : NoForced : No
Menu00:00:00.000 : en:Chapter 100:08:12.283 : en:Chapter 200:13:56.210 : en:Chapter 300:18:26.731 : en:Chapter 400:23:09.471 : en:Chapter 500:26:45.771 : en:Chapter 600:32:34.578 : en:Chapter 700:36:57.173 : en:Chapter 800:40:39.187 : en:Chapter 900:44:19.907 : en:Chapter 1000:50:50.005 : en:Chapter 1100:55:04.551 : en:Chapter 1201:00:19.825 : en:Chapter 1301:05:54.868 : en:Chapter 1401:11:01.591 : en:Chapter 1501:15:23.686 : en:Chapter 1601:17:27.893 : en:Chapter 1701:21:20.709 : en:Chapter 1801:27:05.345 : en:Chapter 1901:34:42.635 : en:Chapter 2001:40:35.988 : en:Chapter 21

Скриншоты

Сравнение с этим релизом
Показать сообщения:    

Текущее время: 21-Окт 07:35

Часовой пояс: UTC - 1


Вы не можете начинать темы
Вы не можете отвечать на сообщения
Вы не можете редактировать свои сообщения
Вы не можете удалять свои сообщения
Вы не можете голосовать в опросах
Вы не можете прикреплять файлы к сообщениям
Вы не можете скачивать файлы

!ВНИМАНИЕ!
Сайт не предоставляет электронные версии произведений, а занимается лишь коллекционированием и каталогизацией ссылок, присылаемых и публикуемых на форуме нашими читателями. Если вы являетесь правообладателем какого-либо представленного материала и не желаете, чтобы ссылка на него находилась в нашем каталоге, свяжитесь с нами, и мы незамедлительно удалим ее. Файлы для обмена на трекере предоставлены пользователями сайта, и администрация не несет ответственности за их содержание. Просьба не заливать файлы, защищенные авторскими правами, а также файлы нелегального содержания!