Ивановский Торрент трекер
Яндекс.Погода
 

[Цитировать]
HUNTER

-Копы в юбках / The Heat-

Год выпуска: 2013
Страна: США
Жанр: Комедия, криминал, боевик, детектив
Продолжительность: 02:00:20
Перевод: Дублированный [Чистый звук]
Субтитры: Английские-В ролях: Сандра Буллок, Мелисса МакКарти, Демиан Бишир, Марлон Уайанс, Майкл Рапапорт, Джейн Куртин, Спокен Ризонс, Дэн Баккедаль, Таран Киллэм, Майкл МакДональд
Режиссёр: Пол Фиг-Описание:-Агенту ФБР и бостонскому полицейскому доверено ответственное задание: выйти на след и обезвредить опасного преступника. И это даже хорошо, что копы — женщины, ведь бандит-то — русский. А непредсказуемости русской смекалки можно противопоставить только столь же непредсказуемую женскую логику.-Качество: BDRip 1080p
Формат: MKV
Видео кодек: AVC
Аудио кодек: AC3, DTS
Видео: MPEG-4 AVC, 10.4 Мбит/с, 1920x800, 23.976 fps
Аудио: Русский (AC3, 6 ch, 384 Кбит/с) 48 KHz / Не кинотеатральный
Аудио: Английский (DTS, 6 ch, 1510 Кбит/с), 48 KHz

Рейтинг

Рейтинг:

MI

Общее
Уникальный идентификатор : 181230394583170766721532631259008157178 (0x8857B451FDB61A7BAC0A5BAD32D745FA)
Полное имя : D:The.Heat.2013.UNRATED.BluRay.1080p.DTS.x264-CHD.mkv
Формат : Matroska
Версия формата : Version 2
Размер файла : 10,3 Гбайт
Продолжительность : 2 ч. 0 м.
Общий поток : 12,3 Мбит/сек
Название фильма : The.Heat.2013.UNRATED.BluRay.1080p.DTS.x264-CHD
Дата кодирования : UTC 2013-10-08 16:35:21
Программа кодирования : mkvmerge v6.3.0 ('You can't stop me!') built on Jun 28 2013 20:09:41
Библиотека кодирования : libebml v1.3.0 + libmatroska v1.4.0
Видео
Идентификатор : 1
Формат : AVC
Формат/Информация : Advanced Video Codec
Профиль формата : [url=mailto:High@L4.1]High@L4.1[/url]
Параметр CABAC формата : Да
Параметр ReFrames формата : 5 кадров
Идентификатор кодека : V_MPEG4/ISO/AVC
Продолжительность : 2 ч. 0 м.
Битрейт : 10,4 Мбит/сек
Ширина : 1920 пикселей
Высота : 800 пикселей
Соотношение сторон : 2,40:1
Режим частоты кадров : Постоянный
Частота кадров : 23,976 кадра/сек
Цветовое пространство : YUV
Субдискретизация насыщенности : 4:2:0
Битовая глубина : 8 бит
Тип развёртки : Прогрессивная
Бит/(Пиксели*Кадры) : 0.282
Размер потока : 8,52 Гбайт (83%)
Заголовок : hahay0yo@CHD
Библиотека кодирования : x264 core 138 r2356 a1d3d17
Настройки программы : cabac=1 / ref=5 / deblock=1:-3:-3 / analyse=0x3:0x113 / me=umh / subme=10 / psy=1 / psy_rd=1.00:0.05 / mixed_ref=1 / me_range=32 / chroma_me=1 / trellis=2 / 8x8dct=1 / cqm=0 / deadzone=21,11 / fast_pskip=0 / chroma_qp_offset=-2 / threads=18 / lookahead_threads=1 / sliced_threads=0 / nr=0 / decimate=1 / interlaced=0 / bluray_compat=0 / constrained_intra=0 / bframes=5 / b_pyramid=2 / b_adapt=2 / b_bias=0 / direct=3 / weightb=1 / open_gop=0 / weightp=2 / keyint=250 / keyint_min=23 / scenecut=40 / intra_refresh=0 / rc=2pass / mbtree=0 / bitrate=10385 / ratetol=1.0 / qcomp=0.70 / qpmin=0 / qpmax=69 / qpstep=4 / cplxblur=20.0 / qblur=0.5 / ip_ratio=1.40 / pb_ratio=1.30 / aq=2:1.00
Язык : English
Default : Да
Forced : Нет
Аудио #1
Идентификатор : 2
Формат : AC-3
Формат/Информация : Audio Coding 3
Расширение режима : CM (complete main)
Параметр Endianness формата : Big
Идентификатор кодека : A_AC3
Продолжительность : 2 ч. 0 м.
Вид битрейта : Постоянный
Битрейт : 384 Кбит/сек
Каналы : 6 каналов
Расположение каналов : Front: L C R, Side: L R, LFE
Частота : 48,0 КГц
Битовая глубина : 16 бит
Метод сжатия : С потерями
Размер потока : 331 Мбайт (3%)
Язык : Russian
Default : Да
Forced : Нет
Аудио #2
Идентификатор : 3
Формат : DTS
Формат/Информация : Digital Theater Systems
Режим : 16
Параметр Endianness формата : Big
Идентификатор кодека : A_DTS
Продолжительность : 2 ч. 0 м.
Вид битрейта : Постоянный
Битрейт : 1509 Кбит/сек
Каналы : 6 каналов
Расположение каналов : Front: L C R, Side: L R, LFE
Частота : 48,0 КГц
Битовая глубина : 24 бит
Метод сжатия : С потерями
Размер потока : 1,27 Гбайт (12%)
Заголовок : English DTS 5.1 1509Kbps
Язык : English
Default : Нет
Forced : Нет
Меню
00:00:00.000 : en:00:00:00.000
00:01:46.023 : en:00:01:46.023
00:05:28.453 : en:00:05:28.453
00:07:15.977 : en:00:07:15.977
00:11:26.436 : en:00:11:26.436
00:14:17.899 : en:00:14:17.899
00:16:38.956 : en:00:16:38.956
00:19:50.940 : en:00:19:50.940
00:23:23.610 : en:00:23:23.610
00:26:18.118 : en:00:26:18.118
00:30:11.977 : en:00:30:11.977
00:34:07.837 : en:00:34:07.837
00:36:27.101 : en:00:36:27.101
00:39:12.975 : en:00:39:12.975
00:44:44.140 : en:00:44:44.140
00:47:59.585 : en:00:47:59.585
00:52:59.801 : en:00:52:59.801
00:56:13.787 : en:00:56:13.787
01:00:57.779 : en:01:00:57.779
01:03:25.802 : en:01:03:25.802
01:05:47.151 : en:01:05:47.151
01:09:34.795 : en:01:09:34.795
01:17:00.574 : en:01:17:00.574
01:23:38.638 : en:01:23:38.638
01:26:51.623 : en:01:26:51.623
01:28:37.020 : en:01:28:37.020
01:31:07.420 : en:01:31:07.420
01:34:08.559 : en:01:34:08.559
01:37:03.234 : en:01:37:03.234
01:39:41.225 : en:01:39:41.225
01:44:20.671 : en:01:44:20.671
01:45:41.502 : en:01:45:41.502
01:48:54.569 : en:01:48:54.569
01:51:15.710 : en:01:51:15.710
01:54:02.711 : en:01:54:02.711
01:55:24.876 : en:01:55:24.876

Скриншоты



0 человек читают эту тему: 0 пользователей, 0 скрытых пользователей, 0 гостей

Показать сообщения:    

Текущее время: 23-Авг 11:05

Часовой пояс: UTC - 1


Вы не можете начинать темы
Вы не можете отвечать на сообщения
Вы не можете редактировать свои сообщения
Вы не можете удалять свои сообщения
Вы не можете голосовать в опросах
Вы не можете прикреплять файлы к сообщениям
Вы не можете скачивать файлы

!ВНИМАНИЕ!
Сайт не предоставляет электронные версии произведений, а занимается лишь коллекционированием и каталогизацией ссылок, присылаемых и публикуемых на форуме нашими читателями. Если вы являетесь правообладателем какого-либо представленного материала и не желаете, чтобы ссылка на него находилась в нашем каталоге, свяжитесь с нами, и мы незамедлительно удалим ее. Файлы для обмена на трекере предоставлены пользователями сайта, и администрация не несет ответственности за их содержание. Просьба не заливать файлы, защищенные авторскими правами, а также файлы нелегального содержания!