Важное объявление!
У Нас Все раздачи мультитрекерные, при нуле пиров в релизах, можете смело вставать на закачку!
 
Автор Сообщение

HUNTER

Стаж:
4 года 6 месяцев
Сообщений:
60959

Репутация: 101

[+] [-]
Вне форума [Профиль] [ЛС]

Копы в юбках / The Heat

-
-Страна: США
Студия: Twentieth Century Fox Film Corporation, Chernin Entertainment, Dune Entertainment
Жанр: комедия, криминал, боевик, детектив
Год выпуска: 2013
Продолжительность: 02:00:20--Перевод 1: Профессиональный (дублированный) Blu-ray
Перевод 2: Одноголосый закадровый Д. Есарев
Cубтитры: русские (forced, full), украинские, английские (full, SDH, SDH-COLORED)
Оригинальная аудиодорожка: английский--Режиссер: Пол Фиг / Paul Feig
В ролях: Сандра Буллок, Мелисса МакКарти, Демиан Бишир, Марлон Уайанс, Майкл Рапапорт, Джейн Куртин, Спокен Ризонс, Дэн Баккедаль, Таран Киллэм, Майкл МакДональд--Описание: Агенту ФБР и бостонскому полицейскому доверено ответственное задание: выйти на след и обезвредить безжалостного наркобарона.--imdb | kinopoisk | Сэмпл--Тип релиза: BDRip 1080p [The Heat 2013 Unrated 1080p BluRay DTS x264-EbP]
Контейнер: MKV
Видео: MPEG-4 AVC / 12,0 Mbps / 1920x800 / 23,976 fps / 2,40:1 / High Profile 4.1
Аудио 1: Russian DTS / 5.1 / 48 kHz / 768 kbps / 24 bits |Dub, Blu-ray|
Аудио 2: Ukrainian AC3 / 5.1 / 48 kHz / 448 kbps / 16 bits |Dub, Blu-ray|
Аудио 3: Russian DTS / 5.1 / 48 kHz / 1509 kbps / 24 bits |Д. Есарев|
Аудио 4: English DTS / 5.1 / 48 kHz / 1509 kbps / 24 bits |original|
Формат субтитров: softsub [SRT]

MediaInfo

Код:
Общее
Уникальный идентификатор                 : 207529514023088551557480307194015000677 (0x9C20BB04AD6288E9A0F753B531482865)
Полное имя                               : G:\HD\Копы в юбках.2013.Unrated.BDRip.(1080p).mkv
Формат                                   : Matroska
Версия формата                           : Version 2
Размер файла                             : 13,6 Гбайт
Продолжительность                        : 2 ч. 0 м.
Общий поток                              : 16,2 Мбит/сек
Дата кодирования                         : UTC 2013-11-09 10:23:57
Программа кодирования                    : mkvmerge v5.8.0 ('No Sleep / Pillow') built on Sep  2 2012 15:37:04
Библиотека кодирования                   : libebml v1.2.3 + libmatroska v1.3.0
Attachment                               : Yes
Видео
Идентификатор                            : 1
Формат                                   : AVC
Формат/Информация                        : Advanced Video Codec
Профиль формата                          : High@L4.1
Параметр CABAC формата                   : Да
Параметр ReFrames формата                : 5 кадров
Идентификатор кодека                     : V_MPEG4/ISO/AVC
Продолжительность                        : 2 ч. 0 м.
Битрейт                                  : 12,0 Мбит/сек
Ширина                                   : 1920 пикселей
Высота                                   : 800 пикселей
Соотношение сторон                       : 2,40:1
Режим частоты кадров                     : Постоянный
Частота кадров                           : 23,976 кадра/сек
Цветовое пространство                    : YUV
Субдискретизация насыщенности            : 4:2:0
Битовая глубина                          : 8 бит
Тип развёртки                            : Прогрессивная
Бит/(Пиксели*Кадры)                      : 0.326
Размер потока                            : 9,82 Гбайт (72%)
Заголовок                                : The Heat 2013 Unrated 1080p BluRay DTS x264-EbP
Библиотека кодирования                   : x264 core 138 r2358 9e941d1
Настройки программы                      : cabac=1 / ref=5 / deblock=1:-3:-3 / analyse=0x3:0x113 / me=umh / subme=10 / psy=1 / psy_rd=1.05:0.00 / mixed_ref=1 / me_range=32 / chroma_me=1 / trellis=2 / 8x8dct=1 / cqm=0 / deadzone=21,11 / fast_pskip=0 / chroma_qp_offset=-2 / threads=12 / lookahead_threads=2 / sliced_threads=0 / nr=0 / decimate=0 / interlaced=0 / bluray_compat=0 / constrained_intra=0 / bframes=8 / b_pyramid=2 / b_adapt=2 / b_bias=0 / direct=3 / weightb=1 / open_gop=0 / weightp=2 / keyint=240 / keyint_min=23 / scenecut=40 / intra_refresh=0 / rc_lookahead=120 / rc=2pass / mbtree=0 / bitrate=12000 / ratetol=1.0 / qcomp=0.60 / qpmin=0 / qpmax=69 / qpstep=4 / cplxblur=20.0 / qblur=0.5 / vbv_maxrate=62500 / vbv_bufsize=78125 / nal_hrd=none / ip_ratio=1.40 / pb_ratio=1.30 / aq=2:0.70
Язык                                     : English
Default                                  : Да
Forced                                   : Нет
Аудио #1
Идентификатор                            : 2
Формат                                   : DTS
Формат/Информация                        : Digital Theater Systems
Режим                                    : 16
Параметр Endianness формата              : Big
Идентификатор кодека                     : A_DTS
Продолжительность                        : 2 ч. 0 м.
Вид битрейта                             : Постоянный
Битрейт                                  : 768 Кбит/сек
Каналы                                   : 6 каналов
Расположение каналов                     : Front: L C R, Side: L R, LFE
Частота                                  : 48,0 КГц
Битовая глубина                          : 24 бит
Метод сжатия                             : С потерями
Размер потока                            : 661 Мбайт (5%)
Заголовок                                : Dub, Blu-ray
Язык                                     : Russian
Default                                  : Нет
Forced                                   : Нет
Аудио #2
Идентификатор                            : 3
Формат                                   : AC-3
Формат/Информация                        : Audio Coding 3
Расширение режима                        : CM (complete main)
Параметр Endianness формата              : Big
Идентификатор кодека                     : A_AC3
Продолжительность                        : 2 ч. 0 м.
Вид битрейта                             : Постоянный
Битрейт                                  : 448 Кбит/сек
Каналы                                   : 6 каналов
Расположение каналов                     : Front: L C R, Side: L R, LFE
Частота                                  : 48,0 КГц
Битовая глубина                          : 16 бит
Метод сжатия                             : С потерями
Размер потока                            : 386 Мбайт (3%)
Заголовок                                : Dub, Blu-ray
Язык                                     : Ukrainian
Default                                  : Нет
Forced                                   : Нет
Аудио #3
Идентификатор                            : 4
Формат                                   : DTS
Формат/Информация                        : Digital Theater Systems
Режим                                    : 16
Параметр Endianness формата              : Big
Идентификатор кодека                     : A_DTS
Продолжительность                        : 2 ч. 0 м.
Вид битрейта                             : Постоянный
Битрейт                                  : 1509 Кбит/сек
Каналы                                   : 6 каналов
Расположение каналов                     : Front: L C R, Side: L R, LFE
Частота                                  : 48,0 КГц
Битовая глубина                          : 24 бит
Метод сжатия                             : С потерями
Размер потока                            : 1,27 Гбайт (9%)
Заголовок                                : Д. Есарев
Язык                                     : Russian
Default                                  : Да
Forced                                   : Нет
Аудио #4
Идентификатор                            : 5
Формат                                   : DTS
Формат/Информация                        : Digital Theater Systems
Режим                                    : 16
Параметр Endianness формата              : Big
Идентификатор кодека                     : A_DTS
Продолжительность                        : 2 ч. 0 м.
Вид битрейта                             : Постоянный
Битрейт                                  : 1509 Кбит/сек
Каналы                                   : 6 каналов
Расположение каналов                     : Front: L C R, Side: L R, LFE
Частота                                  : 48,0 КГц
Битовая глубина                          : 24 бит
Метод сжатия                             : С потерями
Размер потока                            : 1,27 Гбайт (9%)
Язык                                     : English
Default                                  : Нет
Forced                                   : Нет
Текст #1
Идентификатор                            : 6
Формат                                   : UTF-8
Идентификатор кодека                     : S_TEXT/UTF8
Идентификатор кодека/Информация          : UTF-8 Plain Text
Заголовок                                : Forced
Язык                                     : Russian
Default                                  : Да
Forced                                   : Нет
Текст #2
Идентификатор                            : 7
Формат                                   : UTF-8
Идентификатор кодека                     : S_TEXT/UTF8
Идентификатор кодека/Информация          : UTF-8 Plain Text
Заголовок                                : full
Язык                                     : Russian
Default                                  : Нет
Forced                                   : Нет
Текст #3
Идентификатор                            : 8
Формат                                   : UTF-8
Идентификатор кодека                     : S_TEXT/UTF8
Идентификатор кодека/Информация          : UTF-8 Plain Text
Язык                                     : Ukrainian
Default                                  : Нет
Forced                                   : Нет
Текст #4
Идентификатор                            : 9
Формат                                   : UTF-8
Идентификатор кодека                     : S_TEXT/UTF8
Идентификатор кодека/Информация          : UTF-8 Plain Text
Заголовок                                : full
Язык                                     : English
Default                                  : Нет
Forced                                   : Нет
Текст #5
Идентификатор                            : 10
Формат                                   : UTF-8
Идентификатор кодека                     : S_TEXT/UTF8
Идентификатор кодека/Информация          : UTF-8 Plain Text
Заголовок                                : SDH
Язык                                     : English
Default                                  : Нет
Forced                                   : Нет
Текст #6
Идентификатор                            : 11
Формат                                   : UTF-8
Идентификатор кодека                     : S_TEXT/UTF8
Идентификатор кодека/Информация          : UTF-8 Plain Text
Заголовок                                : SDH-COLORED
Язык                                     : English
Default                                  : Нет
Forced                                   : Нет
Меню
00:00:00.000                             : :Chapter 01
00:01:46.022                             : :Chapter 02
00:05:28.453                             : :Chapter 03
00:07:15.977                             : :Chapter 04
00:11:26.435                             : :Chapter 05
00:14:17.898                             : :Chapter 06
00:16:38.956                             : :Chapter 07
00:19:50.939                             : :Chapter 08
00:23:23.610                             : :Chapter 09
00:26:18.118                             : :Chapter 10
00:30:11.976                             : :Chapter 11
00:34:07.837                             : :Chapter 12
00:36:27.101                             : :Chapter 13
00:39:12.975                             : :Chapter 14
00:44:44.139                             : :Chapter 15
00:47:59.584                             : :Chapter 16
00:52:59.801                             : :Chapter 17
00:56:13.786                             : :Chapter 18
01:00:57.778                             : :Chapter 19
01:03:25.801                             : :Chapter 20
01:05:47.151                             : :Chapter 21
01:09:34.795                             : :Chapter 22
01:17:00.574                             : :Chapter 23
01:23:38.638                             : :Chapter 24
01:26:51.622                             : :Chapter 25
01:28:37.019                             : :Chapter 26
01:31:07.420                             : :Chapter 27
01:34:08.559                             : :Chapter 28
01:37:03.233                             : :Chapter 29
01:39:41.224                             : :Chapter 30
01:44:20.670                             : :Chapter 31
01:45:41.501                             : :Chapter 32
01:48:54.569                             : :Chapter 33
01:51:15.710                             : :Chapter 34
01:54:02.710                             : :Chapter 35
01:55:24.876                             : :Chapter 36

Скриншоты


Дополнительно

Цитата:

Спасибо bluebird-hd за дубляж.
Цитата:

Дорожка №3 получена наложением чистого голоса на центр декодированного DTS-HD MA.
Работа со звуком — perevodman.

_________________
Показать сообщения:    

Текущее время: Сегодня 12:01

Часовой пояс: GMT



Вы не можете начинать темы
Вы не можете отвечать на сообщения
Вы не можете редактировать свои сообщения
Вы не можете удалять свои сообщения
Вы не можете голосовать в опросах
Вы не можете прикреплять файлы к сообщениям
Вы не можете скачивать файлы
Наши партнеры: интернет магазин Ивановского трикотажа textilla.ru