Ивановский Торрент трекер
Яндекс.Погода
 

[Цитировать]
HUNTER

Копи царя Соломона / King Solomon's Mines
Страна: США
Студия: MGM
Жанр: Приключения
Год выпуска: 1985
Продолжительность: 01:35:52
Перевод: Профессиональный (многоголосый закадровый)
Перевод 2: Профессиональный (многоголосый закадровый) тв канал СТС
Перевод 3: Профессиональный (многоголосый закадровый) ( СТ."ИНИС" )
Перевод 4: Авторский (одноголосый закадровый) Ю.Живов
Перевод 5: Авторский (одноголосый закадровый) В.Дохалов
Cубтитры: английские и прочие, прочие...
Оригинальная аудиодорожка: английский
Режиссер: Джей Ли Томпсон / J. Lee Thompson
В ролях: Ричард Чемберлен , Шэрон Стоун , Херберт Лом , Джон Рис-Дэвис , Кен Гампу , Джун Бателези , Сэм Уильямс, Мик Лесли и др.
Описание: Отец главной героини отправляется на поиски алмазных копей царя Соломона и пропадает без вести. Очаровательная Джесси Хьюстон затевает рискованное сафари для его спасения. Кто же будет ее проводником? Легендарный солдат удачи, известный как Куотермейн.
Чтобы добратьсядо сокровищ и опередить кровожадного соперника, им приходится преодолеть множество препятствий: от голодных каннибалов и гигантских пауков до зыбучих песков и озер бурлящей лавы. Но нет преград, способных остановить любящие сердца!
Доп. информация: Основой для релиза послужила раздача уважаемого tiamat77 : http://rutracker.org/forum/viewtopic.php?t=1197202
Меню русифицировано. Уважаемый miha2154 поделился многоголосками с каналов СТС и ПЕРЕЦ.
Дороги подогнаны в ВЕГАСЕ, меню правлено ФОТОШОПОМ.
Использовал ДЕМУКС,БИСВИТ и БИЛАЙТ, ВЕГАС, ФОТОШОП, МУКСМАН и РИМЕЙК. собирал в ДВД Лабе.
(Пришлось расстаться с 4-мя дорогами субтитров ,теперь их 8-мь. Это ограничение Лаба ).
Пожалуй и все.
Бонусы: нет. Original Theatrical Trailer буржуи зачем-то вырезали, ( так указано в оригинальной раздаче ).
Меню: есть,русское/статичное
Сэмпл: http://multi-up.com/953778
Тип релиза: DVD9 (Custom)
: DVD-Video
Видео: PAL 16:9 (720x576) VBR Auto Pan&Scan, Auto Letterboxed ~ 6790.69 kbps avg
Аудио 1: английский/ AC3, 2/0 (L,R) ch, 192 kbps, Delay 0 mSec
Аудио 2: русский/многоголосый, AC3, 2/0 (L,R) ch, 192 kbps, Delay 0 mSec
Аудио 3: русский/многоголосый СТС, AC3, 2/0 (L,R) ch, 192 kbps, Delay 0 mSec
Аудио 4: русский/многоголосый ст.ИНИС, AC3, 2/0 (L,R) ch, 192 kbps, Delay 0 mSec
Аудио 5: русский/авторский Ю.Живов, AC3, 2/0 (L,R) ch, 192 kbps, Delay 0 mSec
Аудио 6: русский/авторский,В.Дохалов, AC3, 2/0 (L,R) ch, 192 kbps, Delay 0 mSec

MediaInfo

Title: Kopy_tcarya_Solomona_[rutracker.org]
Size: 4.55 Gb ( 4 775 364,00 KBytes ) - DVD-9
Enabled regions: 1, 2, 3, 4, 5, 6, 7, 8
VTS_01 :
Play Length: 01:35:52
Video: PAL 16:9 (720x576) VBR, Auto Pan&Scan, Auto Letterboxed
Audio:
English, AC3, 2/0 (L,R) ch, 192 kbps, Delay 0 mSec
Russian, AC3, 2/0 (L,R) ch, 192 kbps, Delay 0 mSec
Russian, AC3, 2/0 (L,R) ch, 192 kbps, Delay 0 mSec
Russian, AC3, 2/0 (L,R) ch, 192 kbps, Delay 0 mSec
Russian, AC3, 2/0 (L,R) ch, 192 kbps, Delay 0 mSec
Russian, AC3, 2/0 (L,R) ch, 192 kbps, Delay 0 mSec
Subtitles:
English
Deutsch
Francais
Italiano
Espanol
Nederlands
Svenska
Suomi
* Menus Information *
VIDEO_TS Menu
Video:
PAL 16:9 (720x576) VBR
Auto Letterboxed
Audio:
Not specified (Dolby AC3, 6 ch)
English Language Unit :
Title Menu
VTS_01 Menu
Video:
PAL 16:9 (720x576) VBR
Auto Letterboxed
English Language Unit :
Root Menu
General
Complete name : D:\Kopy_tcarya_Solomona_[rutracker.org]\VIDEO_TS\VTS_01_1.VOB
Format : MPEG-PS
File size : 1 024 MiB
Duration : 21mn 7s
Overall bit rate mode : Variable
Overall bit rate : 6 778 Kbps
Writing library : |HCenc 0.17.0.0 - (c) 2004/2006|
Video
ID : 224 (0xE0)
Format : MPEG Video
Format version : Version 2
Format profile : Main@Main
Format settings, BVOP : Yes
Format settings, Matrix : Custom
Duration : 21mn 7s
Bit rate mode : Variable
Bit rate : 5 491 Kbps
Maximum bit rate : 9 000 Kbps
Width : 720 pixels
Height : 576 pixels
Display aspect ratio : 16:9
Frame rate : 25.000 fps
Standard : PAL
Color space : YUV
Chroma subsampling : 4:2:0
Bit depth : 8 bits
Scan type : Interlaced
Scan order : Top Field First
Compression mode : Lossy
Bits/(Pixel*Frame) : 0.530
Stream size : 830 MiB (81%)
Writing library : |HCenc 0.17.0.0 - (c) 2004/2006|
Audio #1
ID : 189 (0xBD)-128 (0x80)
Format : AC-3
Format/Info : Audio Coding 3
Mode extension : CM (complete main)
Muxing mode : DVD-Video
Duration : 21mn 7s
Bit rate mode : Constant
Bit rate : 192 Kbps
Channel(s) : 2 channels
Channel positions : Front: L R
Sampling rate : 48.0 KHz
Bit depth : 16 bits
Compression mode : Lossy
Stream size : 29.0 MiB (3%)
Audio #2
ID : 189 (0xBD)-129 (0x81)
Format : AC-3
Format/Info : Audio Coding 3
Mode extension : CM (complete main)
Muxing mode : DVD-Video
Duration : 21mn 7s
Bit rate mode : Constant
Bit rate : 192 Kbps
Channel(s) : 2 channels
Channel positions : Front: L R
Sampling rate : 48.0 KHz
Bit depth : 16 bits
Compression mode : Lossy
Stream size : 29.0 MiB (3%)
Audio #3
ID : 189 (0xBD)-130 (0x82)
Format : AC-3
Format/Info : Audio Coding 3
Mode extension : CM (complete main)
Muxing mode : DVD-Video
Duration : 21mn 7s
Bit rate mode : Constant
Bit rate : 192 Kbps
Channel(s) : 2 channels
Channel positions : Front: L R
Sampling rate : 48.0 KHz
Bit depth : 16 bits
Compression mode : Lossy
Stream size : 29.0 MiB (3%)
Audio #4
ID : 189 (0xBD)-131 (0x83)
Format : AC-3
Format/Info : Audio Coding 3
Mode extension : CM (complete main)
Muxing mode : DVD-Video
Duration : 21mn 7s
Bit rate mode : Constant
Bit rate : 192 Kbps
Channel(s) : 2 channels
Channel positions : Front: L R
Sampling rate : 48.0 KHz
Bit depth : 16 bits
Compression mode : Lossy
Stream size : 29.0 MiB (3%)
Audio #5
ID : 189 (0xBD)-132 (0x84)
Format : AC-3
Format/Info : Audio Coding 3
Mode extension : CM (complete main)
Muxing mode : DVD-Video
Duration : 21mn 7s
Bit rate mode : Constant
Bit rate : 192 Kbps
Channel(s) : 2 channels
Channel positions : Front: L R
Sampling rate : 48.0 KHz
Bit depth : 16 bits
Compression mode : Lossy
Stream size : 29.0 MiB (3%)
Audio #6
ID : 189 (0xBD)-133 (0x85)
Format : AC-3
Format/Info : Audio Coding 3
Mode extension : CM (complete main)
Muxing mode : DVD-Video
Duration : 21mn 7s
Bit rate mode : Constant
Bit rate : 192 Kbps
Channel(s) : 2 channels
Channel positions : Front: L R
Sampling rate : 48.0 KHz
Bit depth : 16 bits
Compression mode : Lossy
Stream size : 29.0 MiB (3%)
Text #1
ID : 189 (0xBD)-34 (0x22)
Format : RLE
Format/Info : Run-length encoding
Muxing mode : DVD-Video
Text #2
ID : 189 (0xBD)-35 (0x23)
Format : RLE
Format/Info : Run-length encoding
Muxing mode : DVD-Video
Menu

Скриншоты меню






Скриншоты






Скриншоты доп. материалов

нет
Показать сообщения:    

Текущее время: 21-Окт 05:58

Часовой пояс: UTC - 1


Вы не можете начинать темы
Вы не можете отвечать на сообщения
Вы не можете редактировать свои сообщения
Вы не можете удалять свои сообщения
Вы не можете голосовать в опросах
Вы не можете прикреплять файлы к сообщениям
Вы не можете скачивать файлы

!ВНИМАНИЕ!
Сайт не предоставляет электронные версии произведений, а занимается лишь коллекционированием и каталогизацией ссылок, присылаемых и публикуемых на форуме нашими читателями. Если вы являетесь правообладателем какого-либо представленного материала и не желаете, чтобы ссылка на него находилась в нашем каталоге, свяжитесь с нами, и мы незамедлительно удалим ее. Файлы для обмена на трекере предоставлены пользователями сайта, и администрация не несет ответственности за их содержание. Просьба не заливать файлы, защищенные авторскими правами, а также файлы нелегального содержания!