Важное объявление!
У Нас Все раздачи мультитрекерные, при нуле пиров в релизах, можете смело вставать на закачку!
 
Автор Сообщение

HUNTER

Стаж:
4 года 6 месяцев
Сообщений:
60994

Репутация: 101

[+] [-]
Вне форума [Профиль] [ЛС]

Конфискаторы / Угонщик по заказу / Repo Man / Criterion Collection#654 «A repo man is always intense... but only a fool gets killed for a car»
Страна:США
Студия:Edge City
Жанр:Фантастика, Боевик, Триллер, Комедия, КриминалГод выпуска:1984
Продолжительность:01:32:14
Производитель:The Criterion Collection #654
Перевод 1:Профессиональный (многоголосый закадровый)Перевод 2:Одноголосый закадровый С. ВизгуновПеревод 3:Одноголосый закадровый А. Дольский
Cубтитры:Английские, Русские
Оригинальная аудиодорожка:Английский
Премьера (мир):2.03.1984
Режиссер:Алекс Кокс / Alex CoxВ ролях:Гарри Дин Стэнтон — Бад
Эмилио Эстевес — Отто Мэдокс
Хелен Мартин — миссис Паркс
Эдди Велез — Наполеон Родригес
Трейси Уолтер — Миллер
Дел Замора — Лахерто Родригес
Оливия Бараш — Лейла
Описание:Сердитый молодой парень с серьгой в ухе, уволенный из супермаркета за неуживчивый характер и незамысловатую привычку посылать всех на три буквы, знакомится с экспроприатором, и это меняет его судьбу. Эти люди должны возвращать купленные в рассрочку автомобили, если покупатели прекращают выплачивать взносы, что сопряжено зачастую с опасностью. Но не это главное.. .. ФБР разыскивает автомобиль «Шевроле-Малибу», в багажнике которого лежит радиоактивный труп инопланетянина. Всякий, открывший багажник, превратится в пепел. Бригада экспроприаторов начинает охоту за опасной машиной, за рулем которой — физик-ядерщик…
Доп. информация:Исходник найден в сети.
Профессиональный (многоголосый, закадровый) и русские субтитры из сети.Одноголосый закадровый С. Визгунов+ Одноголосый закадровый А. Дольскийиз раздачи intellect-http://rutracker.org/forum/viewtopic.php?t=4574068.Меню переведено статику.Аудиокомментарий переведен в AC3, 1/0 (C) ch, 96 kbps.Из-за превышения размера удален трейлер.
Реавторинг Нордер.Огромное Спасибо Всем, без чьей помощи этот релиз не состоялся бы!Сценарий:Алекс КоксПродюсер:Питер МакКарти, Джонатан Уэкс, Майкл НесмитОператор:Робби МюллерКомпозитор:Стивен Хафстетер, Тито ЛарриваХудожник:Линда Бербенк, Дж. Рэй Фокс, Теда ДеРамусМонтаж:Дэннис Долан

Награды и номинации


Рецензия

Софт

PGCDemux (извлечение).
BeSweet, Sony Vegas 9 (звук).
DVD-lab PRO 2, Subtitle Workshop (субтитры).
MuxMan (сборка). DvdReMakePro (финал).

Бонусы:(Без перевода)


Disc 1,2:
- New, restored 2K digital transfer, approved by director Alex Cox, with uncompressed monaural soundtrack
- Audio commentary featuring Cox, executive producer Michael Nesmith, casting director Victoria Thomas, and actors Sy Richardson, Zander Schloss, and Del Zamora
- New interviews with musicians Iggy Pop and Keith Morris and actors Dick Rude, Olivia Barash, and Miguel Sandoval
- Deleted scenes and trailers
- Roundtable discussion about the making of the film, featuring Cox, producers Peter McCarthy and Jonathan Wacks, Zamora, Richardson, and Rude
- Conversation between actor Harry Dean Stanton and McCarthy
- Cox’s “cleaned-up” television version of the film
Меню:Английский, статичное, озвученное.Сэмпл Диск 1:https://www.sendspace.com/file/tc7dnsСэмпл Диск 2:https://www.sendspace.com/file/ryw9g6Тип релиза:DVD9 (Custom)+DVD9
Контейнер:DVD-Video
Видео:NTSC 16:9 (720x480) VBR, Auto Letterboxed, 7130 Кбит/сек, 23,976 кадра/сек
Аудио 1:Английский:AC3, 1 ch, 48.0 KHz, 384 Кбит/сек / (Оригинал)Аудио 2:Английский:AC3, 1 ch, 48.0 KHz, 96 Кбит/сек / Комментарий Alex Cox, Michael Nesmith, Victoria Thomas, Sy Richardson, Zander Schloss, Del ZamoraАудио 3:Русский:AC3, 2 ch, 48.0 KHz, 192 Кбит/сек / Профессиональный (многоголосый, закадровый)Аудио 4:Русский:AC3, 1 ch, 48.0 KHz, 128 Кбит/сек / Одноголосый закадровый С. ВизгуновАудио 5:Русский:AC3, 1 ch, 48.0 KHz, 128 Кбит/сек / Одноголосый закадровый А. ДольскийФормат субтитров:prerendered (DVD/IDX+SUB)

Dvd Info- Диск 1

Title: Диск 1
Size: 7.89 Gb ( 8 276 558,00 KBytes ) - DVD-9
Enabled regions: 1, 2, 3, 4, 5, 6, 7, 8
VTS_01 :
Play Length: 00:00:00
Video: NTSC 16:9 (720x480) VBR, Auto Letterboxed
VTS_02 :
Play Length: 01:32:14
Video: NTSC 16:9 (720x480) VBR, Auto Letterboxed
Audio:
English, AC3, 1/0 (C) ch, 384 kbps, Delay 0 mSec
English, AC3, 1/0 (C) ch, 96 kbps, Delay 0 mSec
Russian, AC3, 2/0 (L,R) ch, 192 kbps, Delay 0 mSec
Russian, AC3, 1/0 (C) ch, 128 kbps, Delay 0 mSec
Russian, AC3, 1/0 (C) ch, 128 kbps, Delay 0 mSec
Subtitles:
English
Russian
VTS_03 :
Play Length: 00:00:20
Video: NTSC 16:9 (720x480) VBR, Auto Pan&Scan
VTS_04 :
Play Length: 00:19:17
Video: NTSC 16:9 (720x480) VBR, Auto Letterboxed
Audio:
English, AC3, 2/0 (L,R) ch, 192 kbps, Delay 0 mSec
VTS_05 :
Play Length: 00:25:10
Video: NTSC 16:9 (720x480) VBR, Auto Letterboxed
Audio:
English, AC3, 2/0 (L,R) ch, 192 kbps, Delay 0 mSec
VTS_06 :
Play Length: 00:11:57
Video: NTSC 16:9 (720x480) VBR, Auto Letterboxed
Audio:
English, AC3, 2/0 (L,R) ch, 192 kbps, Delay 0 mSec
VTS_07 :
Play Length: 00:00:01
Video: NTSC 4:3 (720x480) VBR
Audio:
English, AC3, 1/0 (C) ch, 192 kbps, Delay 244752 mSec
VTS_08 :
Play Length: 00:00:00
Video: NTSC 4:3 (720x480) VBR

Dvd Info- Диск 2

Title: Диск 2
Size: 7.48 Gb ( 7 840 778,00 KBytes ) - DVD-9
Enabled regions: 1, 2, 3, 4, 5, 6, 7, 8
VTS_01 :
Play Length: 00:00:00
Video: NTSC 16:9 (720x480) VBR, Auto Letterboxed
VTS_02 :
Play Length: 00:25:29
Video: NTSC 16:9 (720x480) VBR, Auto Letterboxed
Audio:
English (Dolby AC3, 1 ch)
VTS_03 :
Play Length: 01:36:48
Video: NTSC 4:3 (720x480) VBR
Audio:
English (Dolby AC3, 1 ch)
VTS_04 :
Play Length: 00:21:19
Video: NTSC 16:9 (720x480) VBR, Auto Letterboxed
Audio:
English (Dolby AC3, 1 ch)
VTS_05 :
Play Length: 00:11:22
Video: NTSC 16:9 (720x480) VBR, Auto Letterboxed
Audio:
English (Dolby AC3, 2 ch)
VTS_06 :
Play Length: 00:00:00
Video: NTSC 4:3 (720x480) VBR

Mediainfo- Диск 1

Общее
Полное имя: F:\Repo man DVD9_Custom+DVD9_Criterion_#654\Диск 1\VIDEO_TS\VTS_02_1.VOB
Формат : MPEG-PS
Размер файла : 1024 Мбайт
Продолжительность : 17 м.
Режим общего битрейта : Переменный
Общий поток : 8222 Кбит/сек
Видео
Идентификатор : 224 (0xE0)
Формат : MPEG Video
Версия формата : Version 2
Профиль формата : Main@Main
Параметр BVOP формата : Да
Параметр матрицы формата : Выборочная
Параметр GOP формата : Variable
Продолжительность : 17 м.
Вид битрейта : Переменный
Битрейт : 7130 Кбит/сек
Максимальный битрейт : 9800 Кбит/сек
Ширина : 720 пикселей
Высота : 480 пикселей
Соотношение сторон : 16:9
Частота кадров : 23,976 кадра/сек
Стандарт вещания : NTSC
Цветовое пространство : YUV
Субдискретизация насыщенности : 4:2:0
Битовая глубина : 8 бит
Тип развёртки : Прогрессивная
Порядок развёртки : 2:3 Pulldown
Метод сжатия : С потерями
Бит/(Пиксели*Кадры) : 0.861
Временной код первого кадра : 00:59:48:00
Оригинал временного кода : Group of pictures header
Размер потока : 888 Мбайт (87%)
Аудио #1
Идентификатор : 189 (0xBD)-128 (0x80)
Формат : AC-3
Формат/Информация : Audio Coding 3
Расширение режима : CM (complete main)
Параметр Endianness формата : Big
Режим смешивания : DVD-Video
Продолжительность : 17 м.
Вид битрейта : Постоянный
Битрейт : 384 Кбит/сек
Каналы : 1 канал
Расположение каналов : Front: C
Частота : 48,0 КГц
Битовая глубина : 16 бит
Метод сжатия : С потерями
Размер потока : 47,8 Мбайт (5%)
Аудио #2
Идентификатор : 189 (0xBD)-129 (0x81)
Формат : AC-3
Формат/Информация : Audio Coding 3
Расширение режима : CM (complete main)
Параметр Endianness формата : Big
Режим смешивания : DVD-Video
Продолжительность : 17 м.
Вид битрейта : Постоянный
Битрейт : 96,0 Кбит/сек
Каналы : 1 канал
Расположение каналов : Front: C
Частота : 48,0 КГц
Битовая глубина : 16 бит
Метод сжатия : С потерями
Размер потока : 12,0 Мбайт (1%)
Аудио #3
Идентификатор : 189 (0xBD)-130 (0x82)
Формат : AC-3
Формат/Информация : Audio Coding 3
Расширение режима : CM (complete main)
Параметр Endianness формата : Big
Режим смешивания : DVD-Video
Продолжительность : 17 м.
Вид битрейта : Постоянный
Битрейт : 192 Кбит/сек
Каналы : 2 канала
Расположение каналов : Front: L R
Частота : 48,0 КГц
Битовая глубина : 16 бит
Метод сжатия : С потерями
Размер потока : 23,9 Мбайт (2%)
Аудио #4
Идентификатор : 189 (0xBD)-131 (0x83)
Формат : AC-3
Формат/Информация : Audio Coding 3
Расширение режима : CM (complete main)
Параметр Endianness формата : Big
Режим смешивания : DVD-Video
Продолжительность : 17 м.
Вид битрейта : Постоянный
Битрейт : 128 Кбит/сек
Каналы : 1 канал
Расположение каналов : Front: C
Частота : 48,0 КГц
Битовая глубина : 16 бит
Метод сжатия : С потерями
Размер потока : 15,9 Мбайт (2%)
Аудио #5
Идентификатор : 189 (0xBD)-132 (0x84)
Формат : AC-3
Формат/Информация : Audio Coding 3
Расширение режима : CM (complete main)
Параметр Endianness формата : Big
Режим смешивания : DVD-Video
Продолжительность : 17 м.
Вид битрейта : Постоянный
Битрейт : 128 Кбит/сек
Каналы : 1 канал
Расположение каналов : Front: C
Частота : 48,0 КГц
Битовая глубина : 16 бит
Метод сжатия : С потерями
Размер потока : 15,9 Мбайт (2%)
Текст #1
Идентификатор : 189 (0xBD)-32 (0x20)
Формат : RLE
Формат/Информация : Run-length encoding
Режим смешивания : DVD-Video
Текст #2
Идентификатор : 189 (0xBD)-33 (0x21)
Формат : RLE
Формат/Информация : Run-length encoding
Режим смешивания : DVD-Video
Текст #3
Идентификатор : 189 (0xBD)-34 (0x22)
Формат : RLE
Формат/Информация : Run-length encoding
Режим смешивания : DVD-Video

Mediainfo- Диск 2

Общее
Полное имя: F:\Repo man DVD9_Custom+DVD9_Criterion_#654\Диск 2\VIDEO_TS\VTS_02_1.VOB
Формат : MPEG-PS
Размер файла : 1024 Мбайт
Продолжительность : 22 м.
Режим общего битрейта : Переменный
Общий поток : 6412 Кбит/сек
Видео
Идентификатор : 224 (0xE0)
Формат : MPEG Video
Версия формата : Version 2
Профиль формата : Main@Main
Параметр BVOP формата : Да
Параметр матрицы формата : Выборочная
Параметр GOP формата : Variable
Структура изображения : Frame
Продолжительность : 22 м.
Вид битрейта : Переменный
Битрейт : 6093 Кбит/сек
Максимальный битрейт : 9800 Кбит/сек
Ширина : 720 пикселей
Высота : 480 пикселей
Соотношение сторон : 16:9
Частота кадров : 29,970 кадров/сек
Стандарт вещания : NTSC
Цветовое пространство : YUV
Субдискретизация насыщенности : 4:2:0
Битовая глубина : 8 бит
Тип развёртки : Чересстрочная
Порядок развёртки : Верхнее поле первое
Метод сжатия : С потерями
Бит/(Пиксели*Кадры) : 0.588
Временной код первого кадра : 01:00:00:00
Оригинал временного кода : Group of pictures header
Размер потока : 973 Мбайт (95%)
Аудио
Идентификатор : 189 (0xBD)-128 (0x80)
Формат : AC-3
Формат/Информация : Audio Coding 3
Расширение режима : CM (complete main)
Параметр Endianness формата : Big
Режим смешивания : DVD-Video
Продолжительность : 22 м.
Вид битрейта : Постоянный
Битрейт : 192 Кбит/сек
Каналы : 1 канал
Расположение каналов : Front: C
Частота : 48,0 КГц
Битовая глубина : 16 бит
Метод сжатия : С потерями
Размер потока : 30,7 Мбайт (3%)

Скриншоты меню-Диск 1

Скриншоты фильма-Диск 1

Скриншоты доп. материалов-Диск 1




Скриншоты меню-Диск 2

Скриншоты доп. материалов-Диск 2


Релиз: Уважаемые пользователи!Найдите пару минут поблагодарить релизера и высказаться в топике раздачи.Ваше мнение - бальзам для раздающего и пища для ума остальным пользователям.Мои раздачи

_________________
Показать сообщения:    

Текущее время: Сегодня 16:54

Часовой пояс: GMT



Вы не можете начинать темы
Вы не можете отвечать на сообщения
Вы не можете редактировать свои сообщения
Вы не можете удалять свои сообщения
Вы не можете голосовать в опросах
Вы не можете прикреплять файлы к сообщениям
Вы не можете скачивать файлы
Наши партнеры: интернет магазин Ивановского трикотажа textilla.ru