Конец света (Богдан Дробязко) [2012, детектив, SATRip] :: Ивановский Торрент трекер
Важное объявление!
У Нас Все раздачи мультитрекерные, при нуле пиров в релизах, можете смело вставать на закачку!
Статистика раздачи
Размер:     |    Зарегистрирован:     |    Скачан:     |   
Нет
 
     
 
 
Автор Сообщение

HUNTER

Стаж:
4 года 11 месяцев
Сообщений:
66054

Репутация: 101

[+] [-]
Вне форума [Профиль] [ЛС]

Конец света-
Год выпуска: 2012
Страна: Россия
Жанр: детектив
Продолжительность: 01:23:42
Перевод: Оригинал-Режиссер: Богдан Дробязко
Сценарий: Алексей Киселёв, Эльвира Серегина
Продюсер: Инесса Юрченко, Сергей Щеглов
Оператор: Григорий Панов
Композитор: Виталий Муканяев, Юрий Здоренко
Художник: Георгий Мичри-В ролях: Валентин Кузнецов , Алексей Фокин , Владимир Матвеев , Вячеслав Коробицин , Екатерина Зорина (кукла), Галина Сумина (Маша), Михаил Соловьев (Кулак)
-Описание: Действие фильма происходит в день, когда весь мир ждет очередного конца света, на этот раз по календарю Майя. Город шумит: радио, афиши, люди на улицах — все спекулируют на конце света. У оперативника уголовного розыска н-ского района Соколова в этот день собственный конец света — его выгнала жена, поскольку заподозрила в измене.«Конец света» — это история длиной в один бесконечный день. Для главного героя — опера Соколова — всё закончится и начнётся заново. Ему нужно лишь пережить этот день.-Премьера (РФ): 21 декабря 2012
Рейтинг:-Качество: SATRip
Формат: AVI
Видео кодек: XviD
Аудио кодеk: MP3
Видео: 704x384 (1.83:1), 25 fps, XviD MPEG-4 ~1034 kbps avg, 0.15 bit/pixel
Аудио: Аудио #1: 48 kHz, MPEG Layer 3, 2 ch, ~128.00 kbps avg
-

МедиаИнфо

Код: copyText_writeLink('this.parentNode.parentNode.nextSibling.nextSibling'); General
Complete name : Konez.sveta.2012.SATRip.avi
Format : AVI
Format/Info : Audio Video Interleave
File size : 701 MiB
Duration : 1h 23mn
Overall bit rate : 1 170 Kbps
Writing application : VirtualDubMod 1.5.4.1 (build 2178/release)
Writing library : VirtualDubMod build 2178/release
Video
ID : 0
Format : MPEG-4 Visual
Format profile : Advanced Simple@L5
Format settings, BVOP : Yes
Format settings, QPel : No
Format settings, GMC : No warppoints
Format settings, Matrix : Custom
Codec ID : XVID
Codec ID/Hint : XviD
Duration : 1h 23mn
Bit rate : 1 035 Kbps
Width : 704 pixels
Height : 384 pixels
Display aspect ratio : 16:9
Frame rate : 25.000 fps
Color space : YUV
Chroma subsampling : 4:2:0
Bit depth : 8 bits
Scan type : Progressive
Bits/(Pixel*Frame) : 0.153
Stream size : 620 MiB (88%)
Writing library : XviD 64
Audio
ID : 1
Format : MPEG Audio
Format version : Version 1
Format profile : Layer 3
Mode : Joint stereo
Mode extension : MS Stereo
Codec ID : 55
Codec ID/Hint : MP3
Duration : 1h 23mn
Bit rate mode : Constant
Bit rate : 128 Kbps
Channel(s) : 2 channels
Sampling rate : 48.0 KHz
Stream size : 76.6 MiB (11%)
Alignment : Aligned on interleaves
Interleave, duration : 80 ms (2.00 video frames)
Interleave, preload duration : 504 ms
Writing library : LAME3.97
Encoding settings : -m j -V 4 -q 2 -lowpass 17 -b 128
-
-- -

_________________
Показать сообщения:    

Текущее время: Сегодня 07:21

Часовой пояс: GMT



Вы не можете начинать темы
Вы не можете отвечать на сообщения
Вы не можете редактировать свои сообщения
Вы не можете удалять свои сообщения
Вы не можете голосовать в опросах
Вы не можете прикреплять файлы к сообщениям
Вы не можете скачивать файлы