Ивановский Торрент трекер
Яндекс.Погода
 

[Цитировать]
HUNTER

Конец Красного Октября / The End Of Red October
Дата/Год выпуска: 26/08/2010
Страна: США
Жанр: Документальный
Продолжительность: 00:44:00
Перевод: Одноголосый закадровый
Русские субтитры: нет
Оригинальная аудиодорожка: английский
Режиссер: Карл В. Джирсторфер / Carl B. Gierstorfer
Телеканал: Discovery
Описание: В северных морях России покоится бывшая гордость Советского Союза – флот атомных подводных лодок (ок. 200 единиц), когда-то служивших одним из ключевых моментов в борьбе двух супердержав, а теперь, медленно ржавея и разрушаясь, ставших кошмаром для флоры и фауны, а так же «подходящим местом» для терроризма. Чтобы полностью обезопасить этот радиактивный мусор необходимо решить две основные проблемы: изолировать детали ядерных реакторов, а затем найти оптимально-безопасный метод их хранения. Свою помощь в решении этой жизненноважной для всей Европы задачи предложили немецкие инженеры...
Сэмпл: http://multi-up.com/971682
качество: DVB
формат: TS/M2TS
Видео: AVC, аноморф. 720х576, 4:3, 1421 Кбит/сек, 25 fps
Аудио 1: (Rus): MPEG Audio, 160 Кбит/сек, 48 КГц, 2 канала
Аудио 2: (Eng): MPEG Audio, 160 Кбит/сек, 48 КГц, 2 канала
MediaInfo
ОбщееИдентификатор : 16 (0x10)Полное имя : End of Red October.tsФормат : MPEG-TSРазмер файла : 565 МбайтПродолжительность : 43 м.Режим общего битрейта : ПеременныйОбщий поток : 1835 Кбит/сек
ВидеоИдентификатор : 1407 (0x57F)Идентификатор меню : 407 (0x197)Формат : AVCФормат/Информация : Advanced Video CodecПрофиль формата : Main@L3.0Параметр CABAC формата : ДаПараметр ReFrames формата : 3 кадраИдентификатор кодека : 27Продолжительность : 43 м.Битрейт : 1421 Кбит/секШирина : 720 пикселейВысота : 576 пикселейСоотношение сторон : 4:3Частота кадров : 25,000 кадров/секСтандарт вещания : PALЦветовое пространство : YUVСубдискретизация насыщенности : 4:2:0Битовая глубина : 8 битТип развёртки : ЧересстрочнаяПорядок развёртки : Верхнее поле первоеБит/(Пиксели*Кадры) : 0.137Размер потока : 438 Мбайт (77%)Основные цвета : BT.601 PALХарактеристики трансфера : BT.470 System B, BT.470 System GКоэффициенты матрицы : BT.601
Аудио #1Идентификатор : 2407 (0x967)Идентификатор меню : 407 (0x197)Формат : MPEG AudioВерсия формата : Version 1Профиль формата : Layer 2Идентификатор кодека : 4Продолжительность : 43 м.Вид битрейта : ПостоянныйБитрейт : 160 Кбит/секКаналы : 2 каналаЧастота : 48,0 КГцМетод сжатия : С потерямиЗадержка видео : 53 мс.Размер потока : 49,3 Мбайт (9%)Язык : stdЯзык, дополнительно : Clean effects
Аудио #2Идентификатор : 3407 (0xD4F)Идентификатор меню : 407 (0x197)Формат : MPEG AudioВерсия формата : Version 1Профиль формата : Layer 2Идентификатор кодека : 4Продолжительность : 43 м.Вид битрейта : ПостоянныйБитрейт : 160 Кбит/секКаналы : 2 каналаЧастота : 48,0 КГцМетод сжатия : С потерямиЗадержка видео : 101 мс.Размер потока : 49,3 Мбайт (9%)Язык : EnglishЯзык, дополнительно : Clean effects
Скриншоты


Показать сообщения:    

Текущее время: 12-Дек 23:53

Часовой пояс: UTC ± 0


Вы не можете начинать темы
Вы не можете отвечать на сообщения
Вы не можете редактировать свои сообщения
Вы не можете удалять свои сообщения
Вы не можете голосовать в опросах
Вы не можете прикреплять файлы к сообщениям
Вы не можете скачивать файлы

!ВНИМАНИЕ!
Сайт не предоставляет электронные версии произведений, а занимается лишь коллекционированием и каталогизацией ссылок, присылаемых и публикуемых на форуме нашими читателями. Если вы являетесь правообладателем какого-либо представленного материала и не желаете, чтобы ссылка на него находилась в нашем каталоге, свяжитесь с нами, и мы незамедлительно удалим ее. Файлы для обмена на трекере предоставлены пользователями сайта, и администрация не несет ответственности за их содержание. Просьба не заливать файлы, защищенные авторскими правами, а также файлы нелегального содержания!