Важное объявление!
У Нас Все раздачи мультитрекерные, при нуле пиров в релизах, можете смело вставать на закачку!
 
Автор Сообщение

HUNTER

Стаж:
4 года 8 месяцев
Сообщений:
62020

Репутация: 101

[+] [-]
Вне форума [Профиль] [ЛС]

Конек-Горбунок-
Год выпуска: 1947г.
Страна: СССР
Жанр: Мультфильм
Продолжительность: 00:55:06
Режиссеры: Иван Иванов-Вано
Описание:
"За горами, за лесами, за широкими морями:" - так начинается известная сказка Петра Ершова "Конек-Горбунок" и ее мультипликационная версия, созданная старейшим российским режиссером, народным артистом СССР Иваном Петровичем Ивановым-Вано в послевоенном 1947 году. С тех пор прошло более полувека. Но до сих пор этот первый российский полнометражный мультипликационный фильм покоряет зрителей неподдельной искренностью, юмором, оптимизмом. Увлекательно и задорно, красочно и непосредственно повествование об удивительных приключениях Иванушки-дурачка и его верного друга - волшебного Конька, перехитривших глупого и алчного царя. Одна из самых читаемых и перечитываемых десятками поколений сказка, реализованная во многих видах искусства, в мультипликации нашла самое органичное выражение. Сразу же после появления на свет киносказка заняла особое место в истории зарубежного и отечественного кинематографа. Фильм был удостоен международных призов и наград
Релиз:
Качество: DVDRip-AVC
Контейнер: MKV
Видео: 720x576 (4:3) @ 768x576, 25.000 fps, AVC, ~2120 Kbps, 0.204 bits/pixel
Аудио: Russian, 48.0 KHz, AC3, 6 ch, 448 Kbps
Субтитры: отсутствуют

Скриншоты

Тех.данные

General
Unique ID : 172965444631635685611239651819898969111 (0x821FEED395C732DB8EA78893E3A69C17)
Complete name : C:\torrent\Owner\Конек-Горбунок.mkv
Format : Matroska
Format version : Version 2
File size : 1.01 GiB
Duration : 55mn 6s
Overall bit rate : 2 620 Kbps
Encoded date : UTC 2011-11-12 16:02:13
Writing application : mkvmerge v5.0.1 ('Es ist Sommer') built on Oct 9 2011 11:55:43
Writing library : libebml v1.2.2 + libmatroska v1.3.0
Video
ID : 1
Format : AVC
Format/Info : Advanced Video Codec
Format profile : High@L4.0
Format settings, CABAC : Yes
Format settings, ReFrames : 16 frames
Codec ID : V_MPEG4/ISO/AVC
Duration : 55mn 6s
Bit rate : 2 120 Kbps
Width : 720 pixels
Height : 576 pixels
Display aspect ratio : 4:3
Frame rate : 25.000 fps
Standard : PAL
Color space : YUV
Chroma subsampling : 4:2:0
Bit depth : 8 bits
Scan type : Progressive
Bits/(Pixel*Frame) : 0.204
Stream size : 836 MiB (81%)
Title : Nyc-2008 / rutracker.org / RG Multfilmy
Writing library : x264 core 119 r2106kMod 07efeb4
Encoding settings : cabac=1 / ref=16 / deblock=1:0:0 / analyse=0x3:0x113 / me=umh / subme=10 / psy=1 / fade_compensate=0.00 / psy_rd=1.00:0.10 / mixed_ref=1 / me_range=24 / chroma_me=1 / trellis=2 / 8x8dct=1 / cqm=0 / deadzone=21,11 / fast_pskip=0 / chroma_qp_offset=-3 / threads=6 / sliced_threads=0 / nr=0 / decimate=1 / interlaced=0 / bluray_compat=0 / constrained_intra=0 / bframes=13 / b_pyramid=2 / b_adapt=2 / b_bias=0 / direct=1 / weightb=1 / open_gop=0 / weightp=2 / keyint=250 / keyint_min=25 / scenecut=40 / intra_refresh=0 / rc_lookahead=60 / rc=crf / mbtree=1 / crf=18.0000 / qcomp=0.60 / qpmin=0 / qpmax=69 / qpstep=4 / ip_ratio=1.40 / aq=2:1.00
Language : Russian
Audio
ID : 2
Format : AC-3
Format/Info : Audio Coding 3
Mode extension : CM (complete main)
Codec ID : A_AC3
Duration : 55mn 6s
Bit rate mode : Constant
Bit rate : 448 Kbps
Channel(s) : 6 channels
Channel positions : Front: L C R, Side: L R, LFE
Sampling rate : 48.0 KHz
Bit depth : 16 bits
Compression mode : Lossy
Stream size : 177 MiB (17%)
Language : Russian

_________________
Показать сообщения:    

Текущее время: Сегодня 16:57

Часовой пояс: GMT



Вы не можете начинать темы
Вы не можете отвечать на сообщения
Вы не можете редактировать свои сообщения
Вы не можете удалять свои сообщения
Вы не можете голосовать в опросах
Вы не можете прикреплять файлы к сообщениям
Вы не можете скачивать файлы
Наши партнеры: интернет магазин Ивановского трикотажа textilla.ru