Важное объявление!
У Нас Все раздачи мультитрекерные, при нуле пиров в релизах, можете смело вставать на закачку!
 
Автор Сообщение

HUNTER

Стаж:
4 года 5 месяцев
Сообщений:
60874

Репутация: 101

[+] [-]
Вне форума [Профиль] [ЛС]

Конг - король Атлантиды / Kong: King of Atlantis
Страна: США
Жанр: приключения, семейный
Продолжительность: 01:08:31
Год выпуска: 2005
Перевод: Профессиональный (многоголосый закадровый)
Русские субтитры: нет
Режиссёр: Патрик Арчибальд / Patrick Archibald
Роли озвучивали: Дафна Голдрик, Сэффрон Хендерсон, Дэвид Кэй, Скотт МакНил, Кирби Морроу
Описание: Конг снова правит в этом насыщенном приключениями полнометражном мультипликационном фильме.
Гигантская горилла, возрожденная из ДНК первого Конга и ДНК своего человеческого "брата" Джейсона, правит своим островом-государством. Но теперь, в соответствии с пророчеством судьбы, древняя цивилизация Атлантиды восстала из моря, и ее злая Королева Рептилла хочет, чтобы Конг правил вместе с ней, чтобы снова стать Конгом: Королем Атлантиды.
Когда Джейсон и его храбрые сторонники гонятся за упрямой Рептиллой, они встречают на своем пути огромных зверей-воинов, загадочные смоляные ямы, благородных мятежников. Посреди бесконечных приключений Джейсон должен попытаться использовать особую силу кибер связи, посредством которой он и горилла смогут слиться с яростным героем-борцом. Только вместе они смогут спасти Остров Конга и самого Конга!
Семпл: http://multi-up.com/975466
Качество: DVDRip
Формат: AVI
Видео: Lavc51.40.4, 720 x 400, ~1958 kbps, 25,000 кадров/сек
Аудио: Русский: AC-3, 2 ch, 448 kbps, 48,0 КГц
Аудио 2: Английский: AC-3, 6 ch, 448 kbps, 48,0 КГц
Субтитры: отсутствуют
Подробные технические данные
I:\Конг - король Атлантиды\Kong - King of Atlantis 2004.avi General Complete name : I:\Конг - король Атлантиды\Kong - King of Atlantis 2004.avi Format : AVI Format/Info : Audio Video Interleave Format profile : OpenDML File size : 1.38 GiB Duration : 1h 8mn Overall bit rate : 2 873 Kbps Writing application : Lavf51.12.1 Video #0 ID : 0 Format : MPEG-4 Visual Format profile : Simple@L1 Format settings, BVOP : No Format settings, QPel : No Format settings, GMC : No warppoints Format settings, Matrix : Default (H.263) Codec ID : FMP4 Duration : 1h 8mn Bit rate : 1 958 Kbps Width : 720 pixels Height : 400 pixels Display aspect ratio : 16:9 Frame rate : 25.000 fps Color space : YUV Chroma subsampling : 4:2:0 Bit depth : 8 bits Scan type : Progressive Compression mode : Lossy Bits/(Pixel*Frame) : 0.272 Stream size : 960 MiB (68%) Writing library : Lavc51.40.4 Audio #1 ID : 1 Format : AC-3 Format/Info : Audio Coding 3 Mode extension : CM (complete main) Format settings, Endianness : Big Codec ID : 2000 Duration : 1h 8mn Bit rate mode : Constant Bit rate : 448 Kbps Channel count : 2 channels Channel positions : Front: L R Sampling rate : 48.0 KHz Bit depth : 16 bits Compression mode : Lossy Stream size : 220 MiB (16%) Alignment : Aligned on interleaves Interleave, duration : 32 ms (0.80 video frame) Interleave, preload duration : 32 ms Audio #2 ID : 2 Format : AC-3 Format/Info : Audio Coding 3 Mode extension : CM (complete main) Format settings, Endianness : Big Codec ID : 2000 Duration : 1h 8mn Bit rate mode : Constant Bit rate : 448 Kbps Channel count : 6 channels Channel positions : Front: L C R, Side: L R, LFE Sampling rate : 48.0 KHz Bit depth : 16 bits Compression mode : Lossy Stream size : 220 MiB (16%) Alignment : Aligned on interleaves Interleave, duration : 32 ms (0.80 video frame) Interleave, preload duration : 32 ms
Скриншоты

_________________
Показать сообщения:    

Текущее время: Сегодня 22:55

Часовой пояс: GMT



Вы не можете начинать темы
Вы не можете отвечать на сообщения
Вы не можете редактировать свои сообщения
Вы не можете удалять свои сообщения
Вы не можете голосовать в опросах
Вы не можете прикреплять файлы к сообщениям
Вы не можете скачивать файлы
Наши партнеры: интернет магазин Ивановского трикотажа textilla.ru