Ивановский Торрент трекер
Яндекс.Погода
 

[Цитировать]
димитри37

Конвой
Жанр: драма
Год выпуска: 2012
Продолжительность: 01:19:50
Режиссёр: Алексей Мизгирёв
В ролях: Олег Васильков, Азамат Нигманов, Дмитрий Куличков, Евгений Антропов, Руслана Доронина, Даниэла Стоянович, Рустам Абдрашитов, Фёдор Леонов, Александр Жарков, Сергей Шанин, Иван Ахади
Описание: Армейский капитан конвоирует в часть солдата-дезертира. Герои проводят сутки в Москве, в течение которых сталкиваются с реалиями жизни в современном мегаполисе: иногда комичными, иногда трагичными. Возникшая дружба между офицером и солдатом-дезертиром меняет отношение главного героя к жизни. Циничный капитан заново обретает смысл жизни и веру в человека...


Качество видео: DVDRip-AVC
Формат видео: MKV
Видео: AVC, 720x576@1024x576 (16:9), 25 fps, 2162 Kbps
Аудио: AC3, 48 kHz, 6 ch, 448 Kbps

MediaInfo

General
Unique ID : 202060684007107026796868377344568069809 (0x980378E186DA8D93AECC8524CC2A0EB1)
Complete name : F:\DM\Konvoj.2012.DVDRip-AVC.mkv
Format : Matroska
Format version : Version 2
File size : 1.46 GiB
Duration : 1h 19mn
Overall bit rate : 2 610 Kbps
Encoded date : UTC 2012-12-09 13:28:49
Writing application : mkvmerge v5.6.0 ('Kenya Kane') built on Jun 29 2012 15:01:44
Writing library : libebml v1.2.3 + libmatroska v1.3.0
Video
ID : 1
Format : AVC
Format/Info : Advanced Video Codec
Format profile : High@L4.1
Format settings, CABAC : Yes
Format settings, ReFrames : 5 frames
Codec ID : V_MPEG4/ISO/AVC
Duration : 1h 19mn
Bit rate : 2 162 Kbps
Width : 720 pixels
Height : 576 pixels
Display aspect ratio : 16:9
Frame rate mode : Constant
Frame rate : 25.000 fps
Standard : PAL
Color space : YUV
Chroma subsampling : 4:2:0
Bit depth : 8 bits
Scan type : Progressive
Bits/(Pixel*Frame) : 0.209
Stream size : 1.18 GiB (81%)
Writing library : x264 core 125 r2200 999b753
Encoding settings : cabac=1 / ref=5 / deblock=1:-1:-1 / analyse=0x3:0x133 / me=umh / subme=10 / psy=1 / psy_rd=1.00:0.15 / mixed_ref=1 / me_range=24 / chroma_me=1 / trellis=2 / 8x8dct=1 / cqm=0 / deadzone=21,11 / fast_pskip=1 / chroma_qp_offset=-3 / threads=3 / lookahead_threads=1 / sliced_threads=0 / nr=0 / decimate=1 / interlaced=0 / bluray_compat=0 / constrained_intra=0 / bframes=6 / b_pyramid=2 / b_adapt=2 / b_bias=0 / direct=3 / weightb=1 / open_gop=0 / weightp=2 / keyint=250 / keyint_min=25 / scenecut=40 / intra_refresh=0 / rc_lookahead=60 / rc=2pass / mbtree=1 / bitrate=2162 / ratetol=1.0 / qcomp=0.60 / qpmin=0 / qpmax=69 / qpstep=4 / cplxblur=20.0 / qblur=0.5 / ip_ratio=1.40 / aq=1:1.00
Default : Yes
Forced : No
Audio
ID : 2
Format : AC-3
Format/Info : Audio Coding 3
Mode extension : CM (complete main)
Format settings, Endianness : Big
Codec ID : A_AC3
Duration : 1h 19mn
Bit rate mode : Constant
Bit rate : 448 Kbps
Channel(s) : 6 channels
Channel positions : Front: L C R, Side: L R, LFE
Sampling rate : 48.0 KHz
Bit depth : 16 bits
Compression mode : Lossy
Stream size : 256 MiB (17%)
Default : Yes
Forced : No

Скриншоты


Показать сообщения:    

Текущее время: 20-Сен 17:30

Часовой пояс: UTC - 1


Вы не можете начинать темы
Вы не можете отвечать на сообщения
Вы не можете редактировать свои сообщения
Вы не можете удалять свои сообщения
Вы не можете голосовать в опросах
Вы не можете прикреплять файлы к сообщениям
Вы не можете скачивать файлы

!ВНИМАНИЕ!
Сайт не предоставляет электронные версии произведений, а занимается лишь коллекционированием и каталогизацией ссылок, присылаемых и публикуемых на форуме нашими читателями. Если вы являетесь правообладателем какого-либо представленного материала и не желаете, чтобы ссылка на него находилась в нашем каталоге, свяжитесь с нами, и мы незамедлительно удалим ее. Файлы для обмена на трекере предоставлены пользователями сайта, и администрация не несет ответственности за их содержание. Просьба не заливать файлы, защищенные авторскими правами, а также файлы нелегального содержания!