Важное объявление!
У Нас Все раздачи мультитрекерные, при нуле пиров в релизах, можете смело вставать на закачку!
 
Автор Сообщение

HUNTER

Стаж:
4 года 7 месяцев
Сообщений:
61487

Репутация: 101

[+] [-]
Вне форума [Профиль] [ЛС]

Комедия ужасов / The Comedy of Terrors-
Страна: США
Студия: American International Pictures (AIP)
Жанр: ужасы, комедия
Год выпуска: 1963
Продолжительность: 1:23:08-Перевод: Профессиональный (двухголосый закадровый) НТВ+ | Перевод Юрия Сербина, текст читают Ольга Плетнёва, Михаил Тихонов
Cубтитры: английские
Оригинальная аудиодорожка: английский-Режиссер: Жак Турнье / Jacques Tourneur
В ролях: Винсент Прайс, Питер Лорре, Борис Карлофф, Джойс Джеймсон, Джо Е. Браун, Беверли Пауэрс...- | Релиз: -Описание: Владельца похоронного бюро, у которого долгое время не было «клиентов», вынуждают заплатить арендную плату за год. Чтобы достать деньги он начинает убивать людей, и дела у его конторы начинают идти лучше.-Доп. информация:
- За исходный Blu-ray спасибо Karloff@BitHQ.
- Звуковая дорожка с переводом НТВ+ записана в 2015 г. с канала MGM-HD. Запись со спутниковой трансляции и работа со звуком - xfiles.
- За украинскую дорожку спасибо karvai0@hurtom, за исходник дорожки спасибо xslim, MAKAPOHHIK, OlegCena. Дорожка синхронизирована с данным релизом без пережатия.
- В контейнер добавлены сканы обложки, буклета и дисков Blu-ray издания (спасибо Karloff@BitHQ).
-Семпл: http://sendfile.su/1148918-Тип релиза: BDRemux 1080p
Контейнер: MKV
Видео: 1920x1080 (16:9 / 2.35:1), 23.976 fps, AVC, ~30000 kbps
Аудио 1: Русский, 48.0 KHz, Dolby AC3, 1 ch, 192 kbps - Двухголосый закадровый | НТВ+ | Ольга Плетнёва, Михаил Тихонов
Аудио 2: Українська, 48.0 KHz, Dolby AC3, 2 ch, 192 kbps - Двоголосий закадровий | 1+1 | Олег Лепенець, Лідія Муращенко
Аудио 3: English, 48.0 KHz, FLAC, 2 ch, 16 bits, 280 kbps - Original
Аудио 4: English, 48.0 KHz, FLAC, 2 ch, 16 bits, 444 kbps - Audio Commentary with David Del Valle and David DeCoteau

MediaInfo

GeneralUnique ID : 205212166636774861043726031621736480018 (0x9A626CF891356B2BA6DDBC575139BD12)Complete name : Comedy.of.Terrors.1963.BDRemux.1080p.rutracker-xfiles.mkvFormat : MatroskaFormat version : Version 4 / Version 2File size : 18.1 GiBDuration : 1h 23mnOverall bit rate mode : VariableOverall bit rate : 31.2 MbpsMovie name : Comedy.of.Terrors.1963.BDRemux.1080p.rutracker-xfilesEncoded date : UTC 2015-08-25 18:30:16Writing application : mkvmerge v8.3.0 ('Over the Horizon') 64bitWriting library : libebml v1.3.1 + libmatroska v1.4.2Attachements : Cover.jpg / CT C1.jpg / CT C2.jpg / CT D1.jpg / CT D2.jpg / CT039.jpg / CT040.jpg / CT041.jpg /CT042.jpg / CT043.jpg / CT044.jpg / CT045.jpg / CT046.jpg / CT047.jpg / CT048.jpg / CT049.jpg / CT050.jpg
VideoID : 1Format : AVCFormat/Info : Advanced Video CodecFormat profile : High@L4.1Format settings, CABAC : YesFormat settings, ReFrames : 4 framesCodec ID : V_MPEG4/ISO/AVCDuration : 1h 23mnBit rate mode : VariableMaximum bit rate : 37.0 MbpsWidth : 1 920 pixelsHeight : 1 080 pixelsDisplay aspect ratio : 16:9Frame rate mode : ConstantFrame rate : 23.976 fpsStandard : NTSCColor space : YUVChroma subsampling : 4:2:0Bit depth : 8 bitsScan type : ProgressiveLanguage : EnglishDefault : YesForced : NoColor range : LimitedColor primaries : BT.709Transfer characteristics : BT.709Matrix coefficients : BT.709
Audio #1ID : 2Format : AC-3Format/Info : Audio Coding 3Mode extension : CM (complete main)Format settings, Endianness : BigCodec ID : A_AC3Duration : 1h 23mnBit rate mode : ConstantBit rate : 192 KbpsChannel(s) : 1 channelChannel positions : Front: CSampling rate : 48.0 KHzCompression mode : LossyStream size : 114 MiB (1%)Title : Двухголосый закадровый | НТВ+ | Ольга Плетнёва, Михаил Тихонов (Перевод Юрия Сербина)Language : RussianDefault : YesForced : No
Audio #2ID : 3Format : AC-3Format/Info : Audio Coding 3Mode extension : CM (complete main)Format settings, Endianness : BigCodec ID : A_AC3Duration : 1h 23mnBit rate mode : ConstantBit rate : 192 KbpsChannel(s) : 2 channelsChannel positions : Front: L RSampling rate : 48.0 KHzCompression mode : LossyStream size : 114 MiB (1%)Title : Двоголосий закадровий | 1+1 | Олег Лепенець, Лідія МуращенкоLanguage : UkrainianDefault : NoForced : No
Audio #3ID : 4Format : FLACFormat/Info : Free Lossless Audio CodecCodec ID : A_FLACDuration : 1h 23mnBit rate mode : VariableChannel(s) : 2 channelsSampling rate : 48.0 KHzBit depth : 16 bitsTitle : OriginalWriting library : libFLAC 1.2.1 (UTC 2007-09-17)Language : EnglishDefault : NoForced : No
Audio #4ID : 5Format : FLACFormat/Info : Free Lossless Audio CodecCodec ID : A_FLACDuration : 1h 23mnBit rate mode : VariableChannel(s) : 2 channelsSampling rate : 48.0 KHzBit depth : 16 bitsTitle : Audio Commentary with David Del Valle and David DeCoteauWriting library : libFLAC 1.2.1 (UTC 2007-09-17)Language : EnglishDefault : NoForced : No
TextID : 6Format : UTF-8Codec ID : S_TEXT/UTF8Codec ID/Info : UTF-8 Plain TextLanguage : EnglishDefault : NoForced : No
Menu00:00:00.000 : :00:00:00.00000:07:05.634 : :00:07:05.63400:14:39.170 : :00:14:39.17000:19:36.884 : :00:19:36.88400:27:11.672 : :00:27:11.67200:33:22.417 : :00:33:22.41700:42:36.512 : :00:42:36.51200:49:54.533 : :00:49:54.53300:57:28.111 : :00:57:28.11101:04:06.051 : :01:04:06.05101:14:21.082 : :01:14:21.08201:20:21.358 : :01:20:21.358

_________________
Показать сообщения:    

Текущее время: Сегодня 04:15

Часовой пояс: GMT



Вы не можете начинать темы
Вы не можете отвечать на сообщения
Вы не можете редактировать свои сообщения
Вы не можете удалять свои сообщения
Вы не можете голосовать в опросах
Вы не можете прикреплять файлы к сообщениям
Вы не можете скачивать файлы
Наши партнеры: интернет магазин Ивановского трикотажа textilla.ru