Важное объявление!
У Нас Все раздачи мультитрекерные, при нуле пиров в релизах, можете смело вставать на закачку!
 
Автор Сообщение

HUNTER

Стаж:
4 года 6 месяцев
Сообщений:
60981

Репутация: 101

[+] [-]
Вне форума [Профиль] [ЛС]

Кома / Coma
Страна: США
Студия: Metro Goldwyn Mayer
Жанр: фантастика, триллер, детектив
Год выпуска: 1978
Продолжительность: 01:52:59
Перевод: Профессиональный двухголосый закадровый
Перевод 2: Авторский (Михалев Алексей)
Перевод 3: Авторский (В.Горчаков)
Cубтитры: английские
Оригинальная аудиодорожка: английский
Режиссер: Майкл Крайтон / Michael Crichton
Сценарий: Майкл Крайтон / Michael Crichton, Робин Кук / Robin Cook
Продюсер: Мартин Эрлихам / Martin Erlichman
Оператор: Джералд Хиршфелд / Gerald Hirschfeld, Виктор Дж. Кемпер / Victor J. Kemper
Композитор: Джерри Голдсмит / Jerry Goldsmith
В ролях: Женевьев Бюжо (Dr. Susan Wheeler), Майкл Дуглас (Dr. Mark Bellows), Элизабет Эшли (Mrs. Emerson), Рип Торн (Dr. George), Ричард Уидмарк (Dr. George A. Harris), Лоис Чайлз (Mrs. Nancy 'Nance' Greenly), Хари Родс (Dr. Morelind), Гари Бартон (Computer Technician), Фрэнк Доунинг (Kelly), Ричард Дойл (Jim), Алан Хофрект (Dr. Marcus), Лэнс ЛеГолт (Vince)
Описание: Молодая женщина-доктор начинает подозревать, что в ее больнице творится что-то неладное. Относительно здоровые пациенты испытывают «осложнения» во время простых операций и впадают в кому.
Затем несчастных коматозников отвозят в исследовательский институт, где они находятся под наблюдением. Доктору Сьюзан Уилер предстоит исследовать палаты, морги и другие мрачные места жутковатого медицинского центра Джефферсона и убедить своего скептически настроенного коллегу - доктора Марка, что ее подозрения - не паранойя.

Информация по сборке: Источник видео звуковых дорожек и субтитров Blu-Ray Disc - спасибо Volshebnik.
Видео сжато в Rhozet Carbon Coder в CBR в 1 проход.
Звук пересобрал с помощью Eac3To, и Sonic Foundry.
Диск собрал с помощью DVD-lab PRO.
За инструкции спасибо Mikky72, GarfieldX.
Меню: статтичное
Сэмпл: http://www.sendspace.com/file/3l448s
Тип релиза: BD-DVD9 (Custom) | BD-DVD5 (Custom)
Контейнер: DVD-Video
Видео: NTSC 16:9 (720x480) VBR, Auto Letterboxed
Аудио: 48 kHz, AC3 Dolby Digital 2 ch, 192 kbps / Профессиональный двухголосый закадровый
Аудио 2: 48 kHz, AC3 Dolby Digital 2 ch, 192 kbps / Авторский (Михалев Алексей)
Аудио 3: 48 kHz, AC3 Dolby Digital 2 ch, 192 kbps / Авторский (В.Горчаков)
Аудио 4: 48 kHz, AC3 Dolby Digital 1.0 ch, 192 kbps / Оригинал (Английский)
Формат субтитров: prerendered (DVD/IDX+SUB)

BDinfo BluRay

Disc Title: COMA_BD_HDCLUB_BY_VOLSHEBNIK
Disc Size: 19 376 517 493 bytes
Protection: AACS
BD-Java: No
BDInfo: 0.5.8
Notes:
BDINFO HOME:
Cinema Squid
http://www.cinemasquid.com/blu-ray/tools/bdinfo
INCLUDES FORUMS REPORT FOR:
AVS Forum Blu-ray Audio and Video Specifications Thread
http://www.avsforum.com/avs-vb/showthread.php?t=1155731
********************
PLAYLIST: 00100.MPLS
********************
<--- BEGIN FORUMS PASTE --->
Код:
Total   Video
Title                                                           Codec   Length  Movie Size      Disc Size       Bitrate Bitrate Main Audio Track                          Secondary Audio Track
-----                                                           ------  ------- --------------  --------------  ------- ------- ------------------                        ---------------------
00100.MPLS                                                      AVC     1:52:58 18 668 654 592  19 376 517 493  22,03   18,97   DTS-HD Master 1.0 1093Kbps (48kHz/24-bit)
Код:
DISC INFO:
Disc Title:     COMA_BD_HDCLUB_BY_VOLSHEBNIK
Disc Size:      19 376 517 493 bytes
Protection:     AACS
BD-Java:        No
BDInfo:         0.5.8
PLAYLIST REPORT:
Name:                   00100.MPLS
Length:                 1:52:58.813 (h:m:s.ms)
Size:                   18 668 654 592 bytes
Total Bitrate:          22,03 Mbps
VIDEO:
Codec                   Bitrate             Description
-----                   -------             -----------
MPEG-4 AVC Video        18972 kbps          1080p / 23,976 fps / 16:9 / High Profile 4.1
AUDIO:
Codec                           Language        Bitrate         Description
-----                           --------        -------         -----------
DTS-HD Master Audio             English         1093 kbps       1.0 / 48 kHz / 1093 kbps / 24-bit (DTS Core: 1.0 / 48 kHz / 768 kbps / 24-bit)
Dolby Digital Audio             Russian         192 kbps        2.0 / 48 kHz / 192 kbps
Dolby Digital Audio             Russian         192 kbps        2.0 / 48 kHz / 192 kbps
Dolby Digital Audio             Russian         192 kbps        2.0 / 48 kHz / 192 kbps
SUBTITLES:
Codec                           Language        Bitrate         Description
-----                           --------        -------         -----------
Presentation Graphics           English         34,700 kbps
Presentation Graphics           French          27,434 kbps
Presentation Graphics           German          39,189 kbps
Presentation Graphics           Spanish         29,715 kbps
FILES:
Name            Time In         Length          Size            Total Bitrate
----            -------         ------          ----            -------------
00001.M2TS      0:00:00.000     1:52:58.813     18 668 654 592  22 032
CHAPTERS:
Number          Time In         Length          Avg Video Rate  Max 1-Sec Rate  Max 1-Sec Time  Max 5-Sec Rate  Max 5-Sec Time  Max 10Sec Rate  Max 10Sec Time  Avg Frame Size  Max Frame Size  Max Frame Time
------          -------         ------          --------------  --------------  --------------  --------------  --------------  --------------  --------------  --------------  --------------  --------------
1               0:00:00.000     0:02:00.411     19 394 kbps     30 298 kbps     00:01:36.638    26 648 kbps     00:01:36.596    26 032 kbps     00:01:33.093    101 076 bytes   225 548 bytes   00:00:24.524
2               0:02:00.411     0:05:14.147     18 931 kbps     28 082 kbps     00:04:56.379    25 082 kbps     00:04:52.125    24 592 kbps     00:04:47.412    98 699 bytes    232 047 bytes   00:04:56.421
3               0:07:14.559     0:02:08.878     20 623 kbps     26 298 kbps     00:07:36.456    23 401 kbps     00:09:02.792    22 225 kbps     00:07:14.684    107 519 bytes   240 687 bytes   00:07:33.369
4               0:09:23.437     0:06:33.101     20 062 kbps     26 416 kbps     00:10:46.646    24 191 kbps     00:15:35.517    23 101 kbps     00:15:33.599    104 594 bytes   242 271 bytes   00:14:37.251
5               0:15:56.538     0:05:06.889     20 283 kbps     27 523 kbps     00:17:22.458    24 189 kbps     00:18:34.029    24 036 kbps     00:18:28.482    105 748 bytes   226 851 bytes   00:17:48.275
6               0:21:03.428     0:03:24.996     20 383 kbps     25 921 kbps     00:23:40.043    23 713 kbps     00:23:43.922    23 546 kbps     00:23:40.043    106 270 bytes   240 104 bytes   00:23:51.930
7               0:24:28.425     0:03:30.752     20 276 kbps     32 534 kbps     00:25:48.713    28 838 kbps     00:25:48.713    26 140 kbps     00:25:45.460    105 709 bytes   231 770 bytes   00:25:48.964
8               0:27:59.177     0:03:30.460     18 014 kbps     25 878 kbps     00:28:04.933    23 430 kbps     00:28:04.933    22 880 kbps     00:28:19.280    93 917 bytes    229 696 bytes   00:28:43.388
9               0:31:29.637     0:01:43.728     19 464 kbps     23 802 kbps     00:32:55.014    21 368 kbps     00:32:55.014    20 789 kbps     00:32:55.014    101 476 bytes   222 160 bytes   00:32:19.854
10              0:33:13.366     0:02:54.382     22 059 kbps     27 699 kbps     00:34:54.300    24 738 kbps     00:34:02.290    24 355 kbps     00:34:44.749    115 007 bytes   236 556 bytes   00:34:04.834
11              0:36:07.748     0:03:08.104     19 515 kbps     24 585 kbps     00:37:21.864    23 089 kbps     00:37:21.489    21 713 kbps     00:37:19.612    101 745 bytes   247 385 bytes   00:36:37.486
12              0:39:15.853     0:01:42.977     19 712 kbps     25 591 kbps     00:40:36.892    22 146 kbps     00:40:36.767    20 840 kbps     00:40:32.430    102 768 bytes   207 181 bytes   00:40:51.448
13              0:40:58.831     0:03:46.893     19 609 kbps     26 270 kbps     00:43:52.421    23 368 kbps     00:44:01.180    23 129 kbps     00:44:01.180    102 231 bytes   215 467 bytes   00:43:52.463
14              0:44:45.724     0:04:18.591     17 259 kbps     26 102 kbps     00:44:45.974    23 010 kbps     00:44:45.724    20 362 kbps     00:44:45.724    89 983 bytes    238 333 bytes   00:47:11.328
15              0:49:04.316     0:03:04.017     17 730 kbps     23 737 kbps     00:51:12.110    20 330 kbps     00:51:36.718    19 306 kbps     00:51:12.027    92 435 bytes    227 649 bytes   00:52:04.412
16              0:52:08.333     0:02:02.288     20 754 kbps     33 773 kbps     00:52:18.218    32 503 kbps     00:52:18.218    30 464 kbps     00:52:15.632    108 200 bytes   307 966 bytes   00:52:31.022
17              0:54:10.622     0:02:10.338     20 795 kbps     27 705 kbps     00:56:08.990    25 297 kbps     00:55:14.686    24 777 kbps     00:55:11.808    108 416 bytes   275 879 bytes   00:55:28.491
18              0:56:20.960     0:01:49.442     19 082 kbps     32 880 kbps     00:58:04.147    26 673 kbps     00:58:04.147    23 868 kbps     00:58:00.393    99 482 bytes    294 828 bytes   00:58:04.189
19              0:58:10.403     0:01:28.630     23 456 kbps     29 424 kbps     00:59:12.173    26 595 kbps     00:59:12.173    25 179 kbps     00:59:07.168    122 288 bytes   259 454 bytes   00:59:25.103
20              0:59:39.033     0:01:43.103     17 133 kbps     25 817 kbps     01:00:33.463    20 766 kbps     00:59:40.034    20 479 kbps     00:59:41.035    89 325 bytes    312 755 bytes   01:00:55.068
21              1:01:22.136     0:05:32.206     17 047 kbps     23 000 kbps     01:03:23.841    19 381 kbps     01:01:45.326    19 062 kbps     01:01:39.779    88 874 bytes    233 392 bytes   01:02:26.492
22              1:06:54.343     0:02:58.803     18 175 kbps     27 066 kbps     01:07:23.664    22 412 kbps     01:07:19.785    20 964 kbps     01:07:16.282    94 758 bytes    220 740 bytes   01:07:20.661
23              1:09:53.147     0:03:53.399     17 794 kbps     22 947 kbps     01:13:24.900    20 368 kbps     01:09:53.689    19 603 kbps     01:09:53.147    92 769 bytes    255 484 bytes   01:12:59.792
24              1:13:46.547     0:02:54.340     17 751 kbps     27 679 kbps     01:14:21.373    20 819 kbps     01:16:15.487    19 788 kbps     01:16:16.029    92 544 bytes    240 375 bytes   01:14:41.852
25              1:16:40.887     0:03:24.245     17 812 kbps     22 295 kbps     01:17:53.794    19 772 kbps     01:19:30.390    19 445 kbps     01:19:30.766    92 862 bytes    227 453 bytes   01:19:45.322
26              1:20:05.133     0:05:05.555     19 634 kbps     26 119 kbps     01:21:50.989    23 857 kbps     01:21:41.396    23 520 kbps     01:21:41.980    102 365 bytes   245 746 bytes   01:24:43.328
27              1:25:10.688     0:03:40.511     19 910 kbps     26 180 kbps     01:27:21.194    23 538 kbps     01:26:12.292    21 614 kbps     01:26:07.412    103 799 bytes   266 656 bytes   01:28:36.394
28              1:28:51.200     0:03:30.043     19 541 kbps     30 043 kbps     01:30:27.839    26 155 kbps     01:30:27.839    24 823 kbps     01:30:27.630    101 875 bytes   259 729 bytes   01:29:06.507
29              1:32:21.244     0:02:16.553     18 578 kbps     24 417 kbps     01:34:16.108    22 556 kbps     01:34:15.232    21 562 kbps     01:34:10.019    96 856 bytes    222 399 bytes   01:33:10.001
30              1:34:37.797     0:06:00.902     17 233 kbps     28 562 kbps     01:37:20.751    23 051 kbps     01:37:18.207    19 966 kbps     01:37:13.160    89 844 bytes    229 278 bytes   01:35:23.676
31              1:40:38.699     0:03:07.979     21 291 kbps     28 485 kbps     01:40:54.923    24 864 kbps     01:41:59.655    24 324 kbps     01:41:54.650    111 002 bytes   235 163 bytes   01:43:46.678
32              1:43:46.678     0:05:52.935     19 446 kbps     28 812 kbps     01:45:47.799    24 818 kbps     01:49:24.391    22 410 kbps     01:49:24.432    101 380 bytes   237 752 bytes   01:43:51.642
33              1:49:39.614     0:00:57.265     19 001 kbps     23 306 kbps     01:50:02.178    20 453 kbps     01:49:43.702    20 000 kbps     01:49:44.494    99 060 bytes    198 454 bytes   01:50:18.194
34              1:50:36.880     0:02:21.933     9 770 kbps      15 385 kbps     01:51:23.593    12 655 kbps     01:52:06.052    12 365 kbps     01:52:05.969    50 968 bytes    167 240 bytes   01:51:23.843
STREAM DIAGNOSTICS:
File            PID             Type            Codec           Language                Seconds                 Bitrate                 Bytes           Packets
----            ---             ----            -----           --------                --------------          --------------          -------------   -----
00001.M2TS      4113 (0x1011)   0x1B            AVC                                     6778,730                18 972                  16 075 855 838  87 464 331
00001.M2TS      4352 (0x1100)   0x86            DTS-HD MA       eng (English)           6778,730                1 093                   925 847 704     5 722 224
00001.M2TS      4353 (0x1101)   0x81            AC3             rus (Russian)           6778,730                192                     162 715 392     1 059 345
00001.M2TS      4354 (0x1102)   0x81            AC3             rus (Russian)           6778,730                192                     162 766 848     1 059 680
00001.M2TS      4355 (0x1103)   0x81            AC3             rus (Russian)           6778,730                192                     162 765 312     1 059 670
00001.M2TS      4608 (0x1200)   0x90            PGS             eng (English)           6778,730                35                      29 403 479      169 512
00001.M2TS      4609 (0x1201)   0x90            PGS             fra (French)            6778,730                27                      23 246 448      134 809
00001.M2TS      4610 (0x1202)   0x90            PGS             deu (German)            6778,730                39                      33 206 603      190 243
00001.M2TS      4611 (0x1203)   0x90            PGS             spa (Spanish)           6778,730                30                      25 178 651      145 555
<---- END FORUMS PASTE ---->
QUICK SUMMARY:
Disc Title: COMA_BD_HDCLUB_BY_VOLSHEBNIK
Disc Size: 19 376 517 493 bytes
Protection: AACS
BD-Java: No
Playlist: 00100.MPLS
Size: 18 668 654 592 bytes
Length: 1:52:58.813
Total Bitrate: 22,03 Mbps
Video: MPEG-4 AVC Video / 18972 kbps / 1080p / 23,976 fps / 16:9 / High Profile 4.1
Audio: English / DTS-HD Master Audio / 1.0 / 48 kHz / 1093 kbps / 24-bit (DTS Core: 1.0 / 48 kHz / 768 kbps / 24-bit)
Audio: Russian / Dolby Digital Audio / 2.0 / 48 kHz / 192 kbps
Audio: Russian / Dolby Digital Audio / 2.0 / 48 kHz / 192 kbps
Audio: Russian / Dolby Digital Audio / 2.0 / 48 kHz / 192 kbps
Subtitle: English / 34,700 kbps
Subtitle: French / 27,434 kbps
Subtitle: German / 39,189 kbps
Subtitle: Spanish / 29,715 kbps
********************
PLAYLIST: 00055.MPLS
********************
<--- BEGIN FORUMS PASTE --->
Код:
Total   Video
Title                                                           Codec   Length  Movie Size      Disc Size       Bitrate Bitrate Main Audio Track                          Secondary Audio Track
-----                                                           ------  ------- --------------  --------------  ------- ------- ------------------                        ---------------------
00055.MPLS                                                      AVC     0:05:40 178 225 152     19 376 517 493  4,19    3,95
Код:
DISC INFO:
Disc Title:     COMA_BD_HDCLUB_BY_VOLSHEBNIK
Disc Size:      19 376 517 493 bytes
Protection:     AACS
BD-Java:        No
BDInfo:         0.5.8
PLAYLIST REPORT:
Name:                   00055.MPLS
Length:                 0:05:40.298 (h:m:s.ms)
Size:                   178 225 152 bytes
Total Bitrate:          4,19 Mbps
VIDEO:
Codec                   Bitrate             Description
-----                   -------             -----------
MPEG-4 AVC Video        3946 kbps           1080p / 23,976 fps / 16:9 / Main Profile 4.0
FILES:
Name            Time In         Length          Size            Total Bitrate
----            -------         ------          ----            -------------
00015.M2TS      0:00:00.000     0:05:40.298     178 225 152     4 190
CHAPTERS:
Number          Time In         Length          Avg Video Rate  Max 1-Sec Rate  Max 1-Sec Time  Max 5-Sec Rate  Max 5-Sec Time  Max 10Sec Rate  Max 10Sec Time  Avg Frame Size  Max Frame Size  Max Frame Time
------          -------         ------          --------------  --------------  --------------  --------------  --------------  --------------  --------------  --------------  --------------  --------------
1               0:00:00.000     0:00:10.010     3 925 kbps      5 996 kbps      00:00:00.625    4 221 kbps      00:00:03.294    3 630 kbps      00:00:00.000    20 376 bytes    368 855 bytes   00:00:00.792
2               0:00:10.010     0:00:10.010     3 666 kbps      6 343 kbps      00:00:19.019    4 210 kbps      00:00:13.304    3 666 kbps      00:00:10.010    19 114 bytes    416 588 bytes   00:00:20.020
3               0:00:20.020     0:00:10.009     4 229 kbps      7 368 kbps      00:00:29.028    4 864 kbps      00:00:23.314    4 229 kbps      00:00:20.019    22 050 bytes    486 613 bytes   00:00:30.029
4               0:00:30.029     0:00:10.010     4 655 kbps      7 835 kbps      00:00:30.655    5 500 kbps      00:00:33.324    4 655 kbps      00:00:30.029    24 268 bytes    486 612 bytes   00:00:34.993
5               0:00:40.039     0:00:10.010     4 089 kbps      7 341 kbps      00:00:49.049    4 675 kbps      00:00:43.334    4 089 kbps      00:00:40.040    21 320 bytes    500 314 bytes   00:00:50.050
6               0:00:50.050     0:00:10.010     4 994 kbps      8 449 kbps      00:00:50.717    5 930 kbps      00:00:53.344    4 994 kbps      00:00:50.050    26 038 bytes    522 423 bytes   00:00:51.676
7               0:01:00.060     0:00:10.009     3 996 kbps      6 652 kbps      00:01:00.685    4 677 kbps      00:01:03.354    3 996 kbps      00:01:00.059    20 833 bytes    410 733 bytes   00:01:00.852
8               0:01:10.069     0:00:10.010     3 723 kbps      6 184 kbps      00:01:15.742    4 355 kbps      00:01:13.364    3 723 kbps      00:01:10.069    19 408 bytes    379 795 bytes   00:01:13.406
9               0:01:20.079     0:00:10.010     3 449 kbps      5 974 kbps      00:01:29.089    3 962 kbps      00:01:23.374    3 449 kbps      00:01:20.080    17 983 bytes    393 036 bytes   00:01:30.090
10              0:01:30.090     0:00:10.010     3 986 kbps      6 763 kbps      00:01:30.715    4 761 kbps      00:01:33.384    3 986 kbps      00:01:30.090    20 780 bytes    415 026 bytes   00:01:30.882
11              0:01:40.100     0:00:10.009     2 783 kbps      5 317 kbps      00:01:49.108    3 128 kbps      00:01:43.394    2 783 kbps      00:01:40.099    14 508 bytes    385 592 bytes   00:01:50.109
12              0:01:50.109     0:00:10.010     3 780 kbps      6 249 kbps      00:01:50.735    4 394 kbps      00:01:53.404    3 780 kbps      00:01:50.109    19 710 bytes    388 693 bytes   00:02:00.119
13              0:02:00.119     0:00:10.010     3 933 kbps      6 627 kbps      00:02:00.745    4 660 kbps      00:02:03.414    3 933 kbps      00:02:00.120    20 505 bytes    408 598 bytes   00:02:04.249
14              0:02:10.130     0:00:10.010     3 139 kbps      5 268 kbps      00:02:19.139    3 624 kbps      00:02:13.424    3 139 kbps      00:02:10.130    16 367 bytes    334 694 bytes   00:02:20.140
15              0:02:20.140     0:00:10.009     3 401 kbps      6 362 kbps      00:02:29.148    3 842 kbps      00:02:23.434    3 401 kbps      00:02:20.139    17 730 bytes    451 799 bytes   00:02:30.149
16              0:02:30.149     0:00:10.010     4 688 kbps      7 825 kbps      00:02:35.822    5 498 kbps      00:02:33.444    4 688 kbps      00:02:30.149    24 441 bytes    484 423 bytes   00:02:36.823
17              0:02:40.159     0:00:10.010     4 480 kbps      7 501 kbps      00:02:40.785    5 282 kbps      00:02:43.454    4 480 kbps      00:02:40.160    23 359 bytes    460 718 bytes   00:02:40.952
18              0:02:50.170     0:00:10.010     3 782 kbps      6 759 kbps      00:02:59.179    4 318 kbps      00:02:53.464    3 782 kbps      00:02:50.170    19 715 bytes    459 181 bytes   00:03:00.180
19              0:03:00.180     0:00:10.009     4 426 kbps      7 469 kbps      00:03:00.805    5 258 kbps      00:03:03.474    4 426 kbps      00:03:00.179    23 077 bytes    459 472 bytes   00:03:01.806
20              0:03:10.189     0:00:10.010     3 465 kbps      6 490 kbps      00:03:19.198    3 902 kbps      00:03:13.484    3 465 kbps      00:03:10.189    18 066 bytes    462 585 bytes   00:03:20.199
21              0:03:20.199     0:00:10.010     4 591 kbps      7 700 kbps      00:03:20.867    5 415 kbps      00:03:23.494    4 591 kbps      00:03:20.200    23 935 bytes    474 375 bytes   00:03:22.660
22              0:03:30.210     0:00:10.010     3 991 kbps      6 632 kbps      00:03:30.835    4 659 kbps      00:03:33.504    3 991 kbps      00:03:30.210    20 805 bytes    410 848 bytes   00:03:36.883
23              0:03:40.220     0:00:10.009     3 903 kbps      6 643 kbps      00:03:49.228    4 508 kbps      00:03:43.514    3 903 kbps      00:03:40.219    20 349 bytes    427 418 bytes   00:03:50.229
24              0:03:50.229     0:00:10.010     4 140 kbps      6 946 kbps      00:03:50.855    4 888 kbps      00:03:53.524    4 140 kbps      00:03:50.229    21 584 bytes    427 660 bytes   00:03:51.022
25              0:04:00.239     0:00:10.010     3 555 kbps      6 340 kbps      00:04:09.249    4 063 kbps      00:04:03.534    3 555 kbps      00:04:00.240    18 534 bytes    429 016 bytes   00:04:10.250
26              0:04:10.250     0:00:10.010     4 373 kbps      7 572 kbps      00:04:19.259    5 029 kbps      00:04:13.544    4 373 kbps      00:04:10.250    22 797 bytes    497 577 bytes   00:04:20.260
27              0:04:20.260     0:00:10.010     5 092 kbps      8 475 kbps      00:04:20.885    5 963 kbps      00:04:23.554    5 092 kbps      00:04:20.260    26 549 bytes    522 083 bytes   00:04:21.052
28              0:04:30.270     0:00:10.009     4 626 kbps      7 737 kbps      00:04:30.895    5 448 kbps      00:04:33.564    4 626 kbps      00:04:30.269    24 120 bytes    475 701 bytes   00:04:33.606
29              0:04:40.279     0:00:10.010     3 822 kbps      6 491 kbps      00:04:40.905    4 569 kbps      00:04:43.574    3 822 kbps      00:04:40.279    19 927 bytes    398 662 bytes   00:04:44.409
30              0:04:50.289     0:00:10.010     2 641 kbps      4 692 kbps      00:04:59.299    3 009 kbps      00:04:53.584    2 641 kbps      00:04:50.290    13 768 bytes    318 002 bytes   00:05:00.300
31              0:05:00.300     0:00:10.010     3 158 kbps      5 307 kbps      00:05:09.309    3 651 kbps      00:05:03.594    3 158 kbps      00:05:00.300    16 464 bytes    336 941 bytes   00:05:10.310
32              0:05:10.310     0:00:10.009     3 380 kbps      6 012 kbps      00:05:19.318    3 862 kbps      00:05:13.604    3 380 kbps      00:05:10.309    17 620 bytes    406 736 bytes   00:05:20.319
33              0:05:20.319     0:00:10.010     4 210 kbps      7 080 kbps      00:05:29.328    4 872 kbps      00:05:23.614    4 210 kbps      00:05:20.319    21 950 bytes    449 990 bytes   00:05:30.329
34              0:05:30.329     0:00:09.968     4 093 kbps      7 321 kbps      00:05:30.997    5 155 kbps      00:05:33.624    0 kbps          00:00:00.000    21 427 bytes    450 341 bytes   00:05:33.666
STREAM DIAGNOSTICS:
File            PID             Type            Codec           Language                Seconds                 Bitrate                 Bytes           Packets
----            ---             ----            -----           --------                --------------          --------------          -------------   -----
00015.M2TS      4113 (0x1011)   0x1B            AVC                                     340,173                 3 947                   167 852 480     916 843
<---- END FORUMS PASTE ---->
QUICK SUMMARY:
Disc Title: COMA_BD_HDCLUB_BY_VOLSHEBNIK
Disc Size: 19 376 517 493 bytes
Protection: AACS
BD-Java: No
Playlist: 00055.MPLS
Size: 178 225 152 bytes
Length: 0:05:40.298
Total Bitrate: 4,19 Mbps
Video: MPEG-4 AVC Video / 3946 kbps / 1080p / 23,976 fps / 16:9 / Main Profile 4.0
********************
PLAYLIST: 00201.MPLS
********************
<--- BEGIN FORUMS PASTE --->
Код:
Total   Video
Title                                                           Codec   Length  Movie Size      Disc Size       Bitrate Bitrate Main Audio Track                          Secondary Audio Track
-----                                                           ------  ------- --------------  --------------  ------- ------- ------------------                        ---------------------
00201.MPLS                                                      AVC     0:02:29 124 667 904     19 376 517 493  6,69    5,39    DD AC3 2.0 192Kbps
Код:
DISC INFO:
Disc Title:     COMA_BD_HDCLUB_BY_VOLSHEBNIK
Disc Size:      19 376 517 493 bytes
Protection:     AACS
BD-Java:        No
BDInfo:         0.5.8
PLAYLIST REPORT:
Name:                   00201.MPLS
Length:                 0:02:29.182 (h:m:s.ms)
Size:                   124 667 904 bytes
Total Bitrate:          6,69 Mbps
VIDEO:
Codec                   Bitrate             Description
-----                   -------             -----------
MPEG-4 AVC Video        5388 kbps           480i / 29,970 fps / 16:9 / High Profile 4.0
AUDIO:
Codec                           Language        Bitrate         Description
-----                           --------        -------         -----------
Dolby Digital Audio             English         192 kbps        2.0 / 48 kHz / 192 kbps / DN -4dB
Dolby Digital Audio             English         192 kbps        2.0 / 48 kHz / 192 kbps / DN -4dB
Dolby Digital Audio             English         192 kbps        2.0 / 48 kHz / 192 kbps / DN -4dB
Dolby Digital Audio             English         192 kbps        2.0 / 48 kHz / 192 kbps / DN -4dB
SUBTITLES:
Codec                           Language        Bitrate         Description
-----                           --------        -------         -----------
Presentation Graphics           English         0,094 kbps
Presentation Graphics           French          0,094 kbps
Presentation Graphics           German          0,094 kbps
Presentation Graphics           Spanish         0,094 kbps
FILES:
Name            Time In         Length          Size            Total Bitrate
----            -------         ------          ----            -------------
00040.M2TS      0:00:00.000     0:02:29.182     124 667 904     6 685
CHAPTERS:
Number          Time In         Length          Avg Video Rate  Max 1-Sec Rate  Max 1-Sec Time  Max 5-Sec Rate  Max 5-Sec Time  Max 10Sec Rate  Max 10Sec Time  Avg Frame Size  Max Frame Size  Max Frame Time
------          -------         ------          --------------  --------------  --------------  --------------  --------------  --------------  --------------  --------------  --------------  --------------
1               0:00:00.000     0:02:29.182     5 388 kbps      8 780 kbps      00:01:19.913    7 277 kbps      00:00:02.035    6 705 kbps      00:00:02.035    22 472 bytes    94 027 bytes    00:00:02.135
STREAM DIAGNOSTICS:
File            PID             Type            Codec           Language                Seconds                 Bitrate                 Bytes           Packets
----            ---             ----            -----           --------                --------------          --------------          -------------   -----
00040.M2TS      4113 (0x1011)   0x1B            AVC                                     149,116                 5 390                   100 471 614     550 951
00040.M2TS      4352 (0x1100)   0x81            AC3             eng (English)           149,116                 192                     3 581 952       23 320
00040.M2TS      4353 (0x1101)   0x81            AC3             eng (English)           149,116                 192                     3 581 952       23 320
00040.M2TS      4354 (0x1102)   0x81            AC3             eng (English)           149,116                 192                     3 581 952       23 320
00040.M2TS      4355 (0x1103)   0x81            AC3             eng (English)           149,116                 192                     3 581 952       23 320
00040.M2TS      4608 (0x1200)   0x90            PGS             eng (English)           149,116                 0                       1 754           17
00040.M2TS      4609 (0x1201)   0x90            PGS             fra (French)            149,116                 0                       1 754           17
00040.M2TS      4610 (0x1202)   0x90            PGS             deu (German)            149,116                 0                       1 754           17
00040.M2TS      4611 (0x1203)   0x90            PGS             spa (Spanish)           149,116                 0                       1 754           17
<---- END FORUMS PASTE ---->
QUICK SUMMARY:
Disc Title: COMA_BD_HDCLUB_BY_VOLSHEBNIK
Disc Size: 19 376 517 493 bytes
Protection: AACS
BD-Java: No
Playlist: 00201.MPLS
Size: 124 667 904 bytes
Length: 0:02:29.182
Total Bitrate: 6,69 Mbps
Video: MPEG-4 AVC Video / 5388 kbps / 480i / 29,970 fps / 16:9 / High Profile 4.0
Audio: English / Dolby Digital Audio / 2.0 / 48 kHz / 192 kbps / DN -4dB
Audio: English / Dolby Digital Audio / 2.0 / 48 kHz / 192 kbps / DN -4dB
Audio: English / Dolby Digital Audio / 2.0 / 48 kHz / 192 kbps / DN -4dB
Audio: English / Dolby Digital Audio / 2.0 / 48 kHz / 192 kbps / DN -4dB
Subtitle: English / 0,094 kbps
Subtitle: French / 0,094 kbps
Subtitle: German / 0,094 kbps
Subtitle: Spanish / 0,094 kbps
********************
PLAYLIST: 00018.MPLS
********************
<--- BEGIN FORUMS PASTE --->
Код:
Total   Video
Title                                                           Codec   Length  Movie Size      Disc Size       Bitrate Bitrate Main Audio Track                          Secondary Audio Track
-----                                                           ------  ------- --------------  --------------  ------- ------- ------------------                        ---------------------
00018.MPLS                                                      VC-1    0:01:43 178 452 480     19 376 517 493  13,79   12,45   DD AC3 5.1 640Kbps
Код:
DISC INFO:
Disc Title:     COMA_BD_HDCLUB_BY_VOLSHEBNIK
Disc Size:      19 376 517 493 bytes
Protection:     AACS
BD-Java:        No
BDInfo:         0.5.8
PLAYLIST REPORT:
Name:                   00018.MPLS
Length:                 0:01:43.561 (h:m:s.ms)
Size:                   178 452 480 bytes
Total Bitrate:          13,79 Mbps
VIDEO:
Codec                   Bitrate             Description
-----                   -------             -----------
VC-1 Video              12450 kbps          1080p / 23,976 fps / 16:9 / Advanced Profile 3
AUDIO:
Codec                           Language        Bitrate         Description
-----                           --------        -------         -----------
Dolby Digital Audio             English         640 kbps        5.1 / 48 kHz / 640 kbps / DN -4dB
FILES:
Name            Time In         Length          Size            Total Bitrate
----            -------         ------          ----            -------------
00005.M2TS      0:00:00.000     0:01:43.561     178 452 480     13 785
CHAPTERS:
Number          Time In         Length          Avg Video Rate  Max 1-Sec Rate  Max 1-Sec Time  Max 5-Sec Rate  Max 5-Sec Time  Max 10Sec Rate  Max 10Sec Time  Avg Frame Size  Max Frame Size  Max Frame Time
------          -------         ------          --------------  --------------  --------------  --------------  --------------  --------------  --------------  --------------  --------------  --------------
1               0:00:00.000     0:01:43.561     12 450 kbps     25 741 kbps     00:00:35.660    21 002 kbps     00:00:34.284    19 398 kbps     00:00:35.160    65 276 bytes    296 904 bytes   00:01:18.369
STREAM DIAGNOSTICS:
File            PID             Type            Codec           Language                Seconds                 Bitrate                 Bytes           Packets
----            ---             ----            -----           --------                --------------          --------------          -------------   -----
00005.M2TS      4113 (0x1011)   0xEA            VC-1                                    103,395                 12 470                  161 167 288     877 383
00005.M2TS      4352 (0x1100)   0x81            AC3             eng (English)           103,395                 641                     8 286 720       48 555
<---- END FORUMS PASTE ---->
QUICK SUMMARY:
Disc Title: COMA_BD_HDCLUB_BY_VOLSHEBNIK
Disc Size: 19 376 517 493 bytes
Protection: AACS
BD-Java: No
Playlist: 00018.MPLS
Size: 178 452 480 bytes
Length: 0:01:43.561
Total Bitrate: 13,79 Mbps
Video: VC-1 Video / 12450 kbps / 1080p / 23,976 fps / 16:9 / Advanced Profile 3
Audio: English / Dolby Digital Audio / 5.1 / 48 kHz / 640 kbps / DN -4dB
********************
PLAYLIST: 00053.MPLS
********************
<--- BEGIN FORUMS PASTE --->
Код:
Total   Video
Title                                                           Codec   Length  Movie Size      Disc Size       Bitrate Bitrate Main Audio Track                          Secondary Audio Track
-----                                                           ------  ------- --------------  --------------  ------- ------- ------------------                        ---------------------
00053.MPLS                                                      AVC     0:00:50 53 932 032      19 376 517 493  8,63    8,20
Код:
DISC INFO:
Disc Title:     COMA_BD_HDCLUB_BY_VOLSHEBNIK
Disc Size:      19 376 517 493 bytes
Protection:     AACS
BD-Java:        No
BDInfo:         0.5.8
PLAYLIST REPORT:
Name:                   00053.MPLS
Length:                 0:00:50.008 (h:m:s.ms)
Size:                   53 932 032 bytes
Total Bitrate:          8,63 Mbps
VIDEO:
Codec                   Bitrate             Description
-----                   -------             -----------
MPEG-4 AVC Video        8197 kbps           1080p / 23,976 fps / 16:9 / High Profile 4.0
FILES:
Name            Time In         Length          Size            Total Bitrate
----            -------         ------          ----            -------------
00013.M2TS      0:00:00.000     0:00:50.008     53 932 032      8 628
CHAPTERS:
Number          Time In         Length          Avg Video Rate  Max 1-Sec Rate  Max 1-Sec Time  Max 5-Sec Rate  Max 5-Sec Time  Max 10Sec Rate  Max 10Sec Time  Avg Frame Size  Max Frame Size  Max Frame Time
------          -------         ------          --------------  --------------  --------------  --------------  --------------  --------------  --------------  --------------  --------------  --------------
1               0:00:00.000     0:00:10.010     8 102 kbps      10 556 kbps     00:00:09.009    8 333 kbps      00:00:03.294    7 810 kbps      00:00:00.000    42 065 bytes    397 660 bytes   00:00:10.010
2               0:00:10.010     0:00:10.010     8 643 kbps      11 650 kbps     00:00:17.434    9 266 kbps      00:00:13.304    8 643 kbps      00:00:10.010    45 059 bytes    402 889 bytes   00:00:15.807
3               0:00:20.020     0:00:10.009     7 718 kbps      10 476 kbps     00:00:21.604    8 341 kbps      00:00:23.314    7 718 kbps      00:00:20.019    40 236 bytes    371 724 bytes   00:00:26.693
4               0:00:30.029     0:00:10.010     6 644 kbps      9 370 kbps      00:00:39.038    6 984 kbps      00:00:33.324    6 644 kbps      00:00:30.029    34 637 bytes    386 986 bytes   00:00:40.039
5               0:00:40.039     0:00:09.968     9 885 kbps      13 558 kbps     00:00:41.624    10 936 kbps     00:00:43.334    0 kbps          00:00:00.000    51 754 bytes    401 367 bytes   00:00:40.832
STREAM DIAGNOSTICS:
File            PID             Type            Codec           Language                Seconds                 Bitrate                 Bytes           Packets
----            ---             ----            -----           --------                --------------          --------------          -------------   -----
00013.M2TS      4113 (0x1011)   0x1B            AVC                                     49,883                  8 217                   51 238 618      279 200
<---- END FORUMS PASTE ---->
QUICK SUMMARY:
Disc Title: COMA_BD_HDCLUB_BY_VOLSHEBNIK
Disc Size: 19 376 517 493 bytes
Protection: AACS
BD-Java: No
Playlist: 00053.MPLS
Size: 53 932 032 bytes
Length: 0:00:50.008
Total Bitrate: 8,63 Mbps
Video: MPEG-4 AVC Video / 8197 kbps / 1080p / 23,976 fps / 16:9 / High Profile 4.0
********************
PLAYLIST: 00054.MPLS
********************
<--- BEGIN FORUMS PASTE --->
Код:
Total   Video
Title                                                           Codec   Length  Movie Size      Disc Size       Bitrate Bitrate Main Audio Track                          Secondary Audio Track
-----                                                           ------  ------- --------------  --------------  ------- ------- ------------------                        ---------------------
00054.MPLS                                                      AVC     0:00:29 35 948 544      19 376 517 493  9,59    9,12
Код:
DISC INFO:
Disc Title:     COMA_BD_HDCLUB_BY_VOLSHEBNIK
Disc Size:      19 376 517 493 bytes
Protection:     AACS
BD-Java:        No
BDInfo:         0.5.8
PLAYLIST REPORT:
Name:                   00054.MPLS
Length:                 0:00:29.988 (h:m:s.ms)
Size:                   35 948 544 bytes
Total Bitrate:          9,59 Mbps
VIDEO:
Codec                   Bitrate             Description
-----                   -------             -----------
MPEG-4 AVC Video        9120 kbps           1080p / 23,976 fps / 16:9 / High Profile 4.0
FILES:
Name            Time In         Length          Size            Total Bitrate
----            -------         ------          ----            -------------
00014.M2TS      0:00:00.000     0:00:29.988     35 948 544      9 590
CHAPTERS:
Number          Time In         Length          Avg Video Rate  Max 1-Sec Rate  Max 1-Sec Time  Max 5-Sec Rate  Max 5-Sec Time  Max 10Sec Rate  Max 10Sec Time  Avg Frame Size  Max Frame Size  Max Frame Time
------          -------         ------          --------------  --------------  --------------  --------------  --------------  --------------  --------------  --------------  --------------  --------------
1               0:00:00.000     0:00:10.010     8 064 kbps      10 436 kbps     00:00:01.584    8 333 kbps      00:00:03.294    7 772 kbps      00:00:00.000    41 868 bytes    365 591 bytes   00:00:07.465
2               0:00:10.010     0:00:10.010     9 049 kbps      12 965 kbps     00:00:19.019    9 897 kbps      00:00:13.304    9 049 kbps      00:00:10.010    47 176 bytes    409 113 bytes   00:00:20.020
3               0:00:20.020     0:00:09.968     10 251 kbps     13 880 kbps     00:00:21.604    11 339 kbps     00:00:23.314    0 kbps          00:00:00.000    53 667 bytes    433 042 bytes   00:00:20.812
STREAM DIAGNOSTICS:
File            PID             Type            Codec           Language                Seconds                 Bitrate                 Bytes           Packets
----            ---             ----            -----           --------                --------------          --------------          -------------   -----
00014.M2TS      4113 (0x1011)   0x1B            AVC                                     29,863                  9 158                   34 185 297      186 205
<---- END FORUMS PASTE ---->
QUICK SUMMARY:
Disc Title: COMA_BD_HDCLUB_BY_VOLSHEBNIK
Disc Size: 19 376 517 493 bytes
Protection: AACS
BD-Java: No
Playlist: 00054.MPLS
Size: 35 948 544 bytes
Length: 0:00:29.988
Total Bitrate: 9,59 Mbps
Video: MPEG-4 AVC Video / 9120 kbps / 1080p / 23,976 fps / 16:9 / High Profile 4.0
********************
PLAYLIST: 00052.MPLS
********************
<--- BEGIN FORUMS PASTE --->
Код:
Total   Video
Title                                                           Codec   Length  Movie Size      Disc Size       Bitrate Bitrate Main Audio Track                          Secondary Audio Track
-----                                                           ------  ------- --------------  --------------  ------- ------- ------------------                        ---------------------
00052.MPLS                                                      AVC     0:00:23 29 712 384      19 376 517 493  10,23   9,74
Код:
DISC INFO:
Disc Title:     COMA_BD_HDCLUB_BY_VOLSHEBNIK
Disc Size:      19 376 517 493 bytes
Protection:     AACS
BD-Java:        No
BDInfo:         0.5.8
PLAYLIST REPORT:
Name:                   00052.MPLS
Length:                 0:00:23.231 (h:m:s.ms)
Size:                   29 712 384 bytes
Total Bitrate:          10,23 Mbps
VIDEO:
Codec                   Bitrate             Description
-----                   -------             -----------
MPEG-4 AVC Video        9736 kbps           1080p / 23,976 fps / 16:9 / High Profile 4.0
FILES:
Name            Time In         Length          Size            Total Bitrate
----            -------         ------          ----            -------------
00012.M2TS      0:00:00.000     0:00:23.231     29 712 384      10 232
CHAPTERS:
Number          Time In         Length          Avg Video Rate  Max 1-Sec Rate  Max 1-Sec Time  Max 5-Sec Rate  Max 5-Sec Time  Max 10Sec Rate  Max 10Sec Time  Avg Frame Size  Max Frame Size  Max Frame Time
------          -------         ------          --------------  --------------  --------------  --------------  --------------  --------------  --------------  --------------  --------------  --------------
1               0:00:00.000     0:00:23.231     9 736 kbps      28 022 kbps     00:00:11.594    13 408 kbps     00:00:08.091    11 401 kbps     00:00:12.137    50 851 bytes    482 078 bytes   00:00:17.767
STREAM DIAGNOSTICS:
File            PID             Type            Codec           Language                Seconds                 Bitrate                 Bytes           Packets
----            ---             ----            -----           --------                --------------          --------------          -------------   -----
00012.M2TS      4113 (0x1011)   0x1B            AVC                                     23,148                  9 771                   28 273 304      153 973
<---- END FORUMS PASTE ---->
QUICK SUMMARY:
Disc Title: COMA_BD_HDCLUB_BY_VOLSHEBNIK
Disc Size: 19 376 517 493 bytes
Protection: AACS
BD-Java: No
Playlist: 00052.MPLS
Size: 29 712 384 bytes
Length: 0:00:23.231
Total Bitrate: 10,23 Mbps
Video: MPEG-4 AVC Video / 9736 kbps / 1080p / 23,976 fps / 16:9 / High Profile 4.0

Mediainfo первого воба

General
Complete name : D:\Video\Coma_9\VIDEO_TS\VTS_01_1.VOB
Format : MPEG-PS
File size : 1 000 MiB
Duration : 14mn 21s
Overall bit rate : 9 742 Kbps
Video
ID : 224 (0xE0)
Format : MPEG Video
Format version : Version 2
Format profile : Main@Main
Format settings, BVOP : Yes
Format settings, Matrix : Custom
Format settings, GOP : Variable
Duration : 14mn 21s
Bit rate : 8 800 Kbps
Width : 720 pixels
Height : 480 pixels
Display aspect ratio : 16:9
Frame rate : 23.976 fps
Standard : NTSC
Color space : YUV
Chroma subsampling : 4:2:0
Bit depth : 8 bits
Scan type : Progressive
Scan order : 2:3 Pulldown
Compression mode : Lossy
Bits/(Pixel*Frame) : 1.062
Time code of first frame : 00:00:00:00
Time code source : Group of pictures header
Stream size : 901 MiB (90%)
Audio #1
ID : 189 (0xBD)-128 (0x80)
Format : AC-3
Format/Info : Audio Coding 3
Mode extension : CM (complete main)
Format settings, Endianness : Big
Muxing mode : DVD-Video
Duration : 14mn 21s
Bit rate mode : Constant
Bit rate : 192 Kbps
Channel count : 2 channels
Channel positions : Front: L R
Sampling rate : 48.0 KHz
Bit depth : 16 bits
Compression mode : Lossy
Stream size : 19.7 MiB (2%)
Audio #2
ID : 189 (0xBD)-129 (0x81)
Format : AC-3
Format/Info : Audio Coding 3
Mode extension : CM (complete main)
Format settings, Endianness : Big
Muxing mode : DVD-Video
Duration : 14mn 21s
Bit rate mode : Constant
Bit rate : 192 Kbps
Channel count : 2 channels
Channel positions : Front: L R
Sampling rate : 48.0 KHz
Bit depth : 16 bits
Compression mode : Lossy
Stream size : 19.7 MiB (2%)
Audio #3
ID : 189 (0xBD)-130 (0x82)
Format : AC-3
Format/Info : Audio Coding 3
Mode extension : CM (complete main)
Format settings, Endianness : Big
Muxing mode : DVD-Video
Duration : 14mn 21s
Bit rate mode : Constant
Bit rate : 192 Kbps
Channel count : 2 channels
Channel positions : Front: L R
Sampling rate : 48.0 KHz
Bit depth : 16 bits
Compression mode : Lossy
Stream size : 19.7 MiB (2%)
Audio #4
ID : 189 (0xBD)-131 (0x83)
Format : AC-3
Format/Info : Audio Coding 3
Mode extension : CM (complete main)
Format settings, Endianness : Big
Muxing mode : DVD-Video
Duration : 14mn 21s
Bit rate mode : Constant
Bit rate : 192 Kbps
Channel count : 1 channel
Channel positions : Front: C
Sampling rate : 48.0 KHz
Bit depth : 16 bits
Compression mode : Lossy
Stream size : 19.7 MiB (2%)
Text
ID : 189 (0xBD)-32 (0x20)
Format : RLE
Format/Info : Run-length encoding
Muxing mode : DVD-Video
Duration : 14mn 9s
Delay relative to video : 11s 244ms
Menu

DVDinfo

Title: Coma_9
Size: 7.69 Gb ( 8 067 624,00 KBytes ) - DVD-9
Enabled regions: 1, 2, 3, 4, 5, 6, 7, 8
VTS_01 :
Play Length: 01:52:52
Video: NTSC 16:9 (720x480) VBR, Auto Letterboxed
Audio:
Russian (Dolby AC3, 2 ch)
Russian (Dolby AC3, 2 ch)
Russian (Dolby AC3, 2 ch)
English (Dolby AC3, 1 ch)
Subtitles:
English

Настройки и конечный проект

Скрипт

LoadPlugin("C:\Program Files (x86)\FFMpegSource2\ffms2.dll")
FFVideoSource("D:\Coma BDDVD5\Coma.video.mkv")
LoadPlugin("C:\Program Files (x86)\AutoYUY2\AutoYUY2.dll")
AutoYUY2()
LoadPlugin("C:\Program Files (x86)\ColorMatrix\ColorMatrix.dll")
ColorMatrix(mode="Rec.709->Rec.601", inputFR=false, clamp=0)
BicubicResize(720, 480, 0, 0.5)
AssumeFPS ("ntsc_film")

Софт

TS Muxer 2.6.12 - разборка BD-Remux
mkvmerge GUI v6.6.0 - сборка мкв
Eac3To - распаковка DTS на wav
Sonic Foundry - сборка звуковых дорожек ac3
FFMpegSource2, AviSynth, Rhozet Carbon Coder - Обработка и кодирование видеодорожки
Adobe Photoshop CS6 - редактирование меню
DVD-lab PRO 2 - сборка DVD

Точка перехода

Меню

Фильм


_________________
Показать сообщения:    

Текущее время: Сегодня 00:50

Часовой пояс: GMT



Вы не можете начинать темы
Вы не можете отвечать на сообщения
Вы не можете редактировать свои сообщения
Вы не можете удалять свои сообщения
Вы не можете голосовать в опросах
Вы не можете прикреплять файлы к сообщениям
Вы не можете скачивать файлы
Наши партнеры: интернет магазин Ивановского трикотажа textilla.ru