Кома (Андрей Либенсон) [2012, драма, криминал, SATRip] :: Ивановский Торрент трекер
Важное объявление!
У Нас Все раздачи мультитрекерные, при нуле пиров в релизах, можете смело вставать на закачку!
Статистика раздачи
Размер:     |    Зарегистрирован:     |    Скачан:     |   
Нет
 
     
 
 
Автор Сообщение

palych74

Стаж:
4 года 11 месяцев
Сообщений:
80

Репутация: 21

[+] [-]
Вне форума [Профиль] [ЛС]

Кома
Жанр: драма, криминал
Год выпуска: 2012
Продолжительность: 01:32:43
Режиссёр: Андрей Либенсон
В ролях:
Алексей Гуськов
Виталий Коваленко
Александра Мареева
Юрий Ицков
Константин Воробьёв
Денис Синявский
Описание:
Лейтенант Таня Баталова поступает на службу в линейный отдел ОВД, сотрудники которого подозреваются в хищении партии наркотиков с места преступления. В отделе царит параноидальная атмосфера: коллеги на взводе, от прямых ответов уклоняются, всё время что-то недоговаривают, утаивают. Постоянно вспыхивают конфликты, а усиливающееся давление со стороны начальства только усугубляет положение.
Ко всему прочему, опер убойного отдела Валера до сих пор не оправился от трагедии: несколько месяцев назад в ДТП погибла его семья — жена и дочка, а его друг и коллега Юра, который вез их в аэропорт, чудом выжил. Он долго лежал в коме, перенес несколько операций, частично потерял память, но классные врачи и дорогие лекарства сделали своё дело: Юра поправляется. А Валера, тем временем, спивается…
Доп. информация:

Качество видео: SATRip, исходник - DVB
Формат видео: AVI
Видео: 704x384 (1.83:1), 25 fps, XviD build 65 ~2041 kbps avg, 0.30 bit/pixel
Аудио: 48 kHz, AC3 Dolby Digital, 2/0 (L,R) ch, ~192 kbps
Семпл

MediaInfo

Общее
Полное имя : D:\Torrent\Кома\Кома_1.46\Кома_1.46.avi
Формат : AVI
Формат/Информация : Audio Video Interleave
Размер файла : 1,45 Гбайт
Продолжительность : 1 ч. 32 м.
Общий поток : 2244 Кбит/сек
Программа кодирования : VirtualDubMod 1.5.10.3 | www.virtualdub-fr.org || (build 2550/release)
Библиотека кодирования : VirtualDubMod build 2550/release
Видео
Идентификатор : 0
Формат : MPEG-4 Visual
Профиль формата : Advanced Simple@L5
Параметр BVOP формата : 1
Параметр QPel формата : Нет
Параметр GMC формата : Без точки перехода
Параметр матрицы формата : Выборочная
Идентификатор кодека : XVID
Идентификатор кодека/Подсказка : XviD
Продолжительность : 1 ч. 32 м.
Битрейт : 2042 Кбит/сек
Ширина : 704 пикселя
Высота : 384 пикселя
Соотношение сторон : 1,85:1
Частота кадров : 25,000 кадров/сек
Цветовое пространство : YUV
Субдискретизация насыщенности : 4:2:0
Битовая глубина : 8 бит
Тип развёртки : Прогрессивная
Метод сжатия : С потерями
Бит/(Пиксели*Кадры) : 0.302
Размер потока : 1,32 Гбайт (91%)
Библиотека кодирования : XviD 65
Аудио
Идентификатор : 1
Формат : AC-3
Формат/Информация : Audio Coding 3
Расширение режима : CM (complete main)
Параметр Endianness формата : Big
Идентификатор кодека : 2000
Продолжительность : 1 ч. 32 м.
Вид битрейта : Постоянный
Битрейт : 192 Кбит/сек
Каналы : 2 канала
Расположение каналов : Front: L R
Частота : 48,0 КГц
Битовая глубина : 16 бит
Метод сжатия : С потерями
Размер потока : 127 Мбайт (9%)
Выравнивание : Разделение по промежуткам
Продолжительность промежутка : 40 мс. (1,00 видеокадр)
Время предзагрузки промежутка : 500 мс.

Скриншот c названием фильма

Скриншоты

Показать сообщения:    

Текущее время: Сегодня 04:07

Часовой пояс: GMT



Вы не можете начинать темы
Вы не можете отвечать на сообщения
Вы не можете редактировать свои сообщения
Вы не можете удалять свои сообщения
Вы не можете голосовать в опросах
Вы не можете прикреплять файлы к сообщениям
Вы не можете скачивать файлы