Ивановский Торрент трекер
Яндекс.Погода
 

[Цитировать]
HUNTER

Команда восемь-Год выпуска: 2012
Страна: Россия
Жанр: драма, приключения, военный
Продолжительность: 4 х ~ 00:50:00
Кол-во серий: 4 серий из 4
Перевод: оригинал
Субтитры: нет-В ролях: Анастасия Лукьянова, Дмитрий Лабуш, Филипп Бледный, Егор Червяков, Дмитрий Лукьянов, Николай Козак, Виктор Вержбицкий и др.
Режиссёр: Александр Аравин-Описание: В первые месяцы войны трое молодых людей — Рита, Ваня и Яшка — оказываются замешаны в страшной криминальной истории: родители Риты жестоко убиты, Яшка стал невольным соучастником убийства, а Ваня — случайным свидетелем.
Все трое попадают в один разведотряд, который готовятся забросить в тыл немцев, наступающих на Москву. Там, на фоне войны, им предстоит узнать всю правду о себе и разгадать тайну гибели родителей Риты.
Качество: DVDRip
Формат: AVI
Видео кодек: XviD
Аудио кодек: AC3
Видео: 720x400 (1.80:1), 23.976 fps, XviD, ~1746 kbps avg
Аудио: 48 kHz, AC3, 2 ch, ~192 kbps avg-

minfo

General
Complete name \Komanda vosem\1.avi
Format : AVI
Format/Info : Audio Video Interleave
File size : 701 MiB
Duration : 50mn 17s
Overall bit rate : 1 948 Kbps
Writing application : VirtualDubMod 1.5.10.2 (build 2540/release)
Video
ID : 0
Format : MPEG-4 Visual
Format profile : Advanced Simple@L5
Format settings, BVOP : 2
Format settings, QPel : No
Format settings, GMC : No warppoints
Format settings, Matrix : Custom
Codec ID : XVID
Codec ID/Hint : XviD
Duration : 50mn 17s
Bit rate : 1 746 Kbps
Width : 720 pixels
Height : 400 pixels
Display aspect ratio : 16:9
Frame rate : 25.000 fps
Color space : YUV
Chroma subsampling : 4:2:0
Bit depth : 8 bits
Scan type : Progressive
Compression mode : Lossy
Bits/(Pixel*Frame) : 0.243
Stream size : 628 MiB (90%)
Writing library : XviD 1.2.1 (UTC 2008-12-04)
Audio
ID : 1
Format : AC-3
Format/Info : Audio Coding 3
Mode extension : CM (complete main)
Codec ID : 2000
Duration : 50mn 17s
Bit rate mode : Constant
Bit rate : 192 Kbps
Channel(s) : 2 channels
Channel positions : Front: L R
Sampling rate : 48.0 KHz
Bit depth : 16 bits
Compression mode : Lossy
Stream size : 69.1 MiB (10%)
Alignment : Aligned on interleaves
Interleave, duration : 40 ms (1.00 video frame)
Interleave, preload duration : 512 ms

Скриншоты




Показать сообщения:    

Текущее время: 25-Сен 07:10

Часовой пояс: UTC - 1


Вы не можете начинать темы
Вы не можете отвечать на сообщения
Вы не можете редактировать свои сообщения
Вы не можете удалять свои сообщения
Вы не можете голосовать в опросах
Вы не можете прикреплять файлы к сообщениям
Вы не можете скачивать файлы

!ВНИМАНИЕ!
Сайт не предоставляет электронные версии произведений, а занимается лишь коллекционированием и каталогизацией ссылок, присылаемых и публикуемых на форуме нашими читателями. Если вы являетесь правообладателем какого-либо представленного материала и не желаете, чтобы ссылка на него находилась в нашем каталоге, свяжитесь с нами, и мы незамедлительно удалим ее. Файлы для обмена на трекере предоставлены пользователями сайта, и администрация не несет ответственности за их содержание. Просьба не заливать файлы, защищенные авторскими правами, а также файлы нелегального содержания!