Важное объявление!
У Нас Все раздачи мультитрекерные, при нуле пиров в релизах, можете смело вставать на закачку!
 
Автор Сообщение

HUNTER

Стаж:
4 года 10 месяцев
Сообщений:
65531

Репутация: 101

[+] [-]
Вне форума [Профиль] [ЛС]

Колыбельная для Беллы / LelleBelle
Страна: Нидерланды
Жанр: драма
Год выпуска: 2010
Продолжительность: 01:29:23
Перевод: Одноголосый закадровый Andi
Cубтитры: русские creo140
Оригинальная аудиодорожка: нидерландский
Режиссер: Миша Кэмп / Mischa Kamp
В ролях: Анна Раадсвелд, Чарли Дагелет, Рени Фоккер, Джуст Болт,Том Янсен
Описание: Героиня покидает деревню и отправляется в город, где, к ее большому удивлению, встречается с собственными сексуальными желаниями. Узнав о наличии у себя эрогенных зон, начинающая музыкантша теперь все силы употребляет на поиски любви и секса
Доп. информация: Русская звуковая дорожка и субтитры взяты с этих раздач http://rutracker.org/forum/tracker.php?f=2092&nm=LelleBelle+2010 авторам большое спасибо.
При пересборе двд были использованы программы:
PgcDemux - разделение компонентов диска на файлы
Muxman - мультиплексирование и авторинг DVD
VobBlanker - реавторинг DVD

Скрин завершения проекта

Бонусы: Трейлер
Сэмпл: http://sendfile.su/1107427
Тип релиза: DVD5 (Custom)
Контейнер: DVD-Video
Видео: PAL 16:9 (720x576) VBR Auto Pan&Scan
Аудио: Russian (Dolby AC3,256 Кбит/сек, 2 ch)
Аудио 2: Niderland (Dolby AC3, 192 Кбит/сек, 2 ch)
Аудио 3: Niderland (Dolby AC3, 448 Кбит/сек, 6 ch)
Формат субтитров: prerendered (DVD/IDX+SUB)

DVDInfo

Size: 4.12 Gb ( 4 315 768 KBytes ) - DVD-5
Enabled regions: 1, 2, 3, 4, 5, 6, 7, 8
VTS_01 :
Play Length: 01:29:23
Video: PAL 16:9 (720x576) VBR, Auto Pan&Scan
Audio:
Russian (Dolby AC3, 2 ch)
Not specified (Dolby AC3, 2 ch)
Not specified (Dolby AC3, 6 ch)
Subtitles:
Russian
English
VTS_02 :
Play Length: 00:01:51
Video: PAL 16:9 (720x576) VBR, Auto Pan&Scan
Audio:
Nederlands (Dolby AC3, 2 ch)
Nederlands (Dolby AC3, 2 ch)
Subtitles:
English
Menu Video:
PAL 16:9 (720x576) VBR
Auto Pan&Scan
Menu Audio:
Not specified (Dolby AC3, 2 ch)
Menu Subtitles:
Not specified
Menu Nederlands Language Unit :
Root Menu

MediaInfo

Общее
Полное имя : F:\LelleBelle_2010\VIDEO_TS\VTS_01_1.VOB
Формат : MPEG-PS
Размер файла : 1024 Мбайт
Продолжительность : 21 м.
Режим общего битрейта : Переменный
Общий поток : 6761 Кбит/сек
Видео
Идентификатор : 224 (0xE0)
Формат : MPEG Video
Версия формата : Version 2
Профиль формата : Main@Main
Параметр BVOP формата : Да
Параметр матрицы формата : Выборочная
Продолжительность : 21 м.
Вид битрейта : Переменный
Битрейт : 5730 Кбит/сек
Максимальный битрейт : 7900 Кбит/сек
Ширина : 720 пикселей
Высота : 576 пикселей
Соотношение сторон : 16:9
Частота кадров : 25,000 кадров/сек
Стандарт вещания : PAL
Цветовое пространство : YUV
Субдискретизация насыщенности : 4:2:0
Битовая глубина : 8 бит
Тип развёртки : Чересстрочная
Порядок развёртки : Верхнее поле первое
Метод сжатия : С потерями
Бит/(Пиксели*Кадры) : 0.553
Размер потока : 868 Мбайт (85%)
Аудио #1
Идентификатор : 189 (0xBD)-128 (0x80)
Формат : AC-3
Формат/Информация : Audio Coding 3
Расширение режима : CM (complete main)
Параметр Endianness формата : Big
Режим смешивания : DVD-Video
Продолжительность : 21 м.
Вид битрейта : Постоянный
Битрейт : 256 Кбит/сек
Каналы : 2 канала
Расположение каналов : Front: L R
Частота : 48,0 КГц
Битовая глубина : 16 бит
Метод сжатия : С потерями
Размер потока : 38,8 Мбайт (4%)
Аудио #2
Идентификатор : 189 (0xBD)-129 (0x81)
Формат : AC-3
Формат/Информация : Audio Coding 3
Расширение режима : CM (complete main)
Параметр Endianness формата : Big
Режим смешивания : DVD-Video
Продолжительность : 21 м.
Вид битрейта : Постоянный
Битрейт : 192 Кбит/сек
Каналы : 2 канала
Расположение каналов : Front: L R
Частота : 48,0 КГц
Битовая глубина : 16 бит
Метод сжатия : С потерями
Размер потока : 29,1 Мбайт (3%)
Аудио #3
Идентификатор : 189 (0xBD)-130 (0x82)
Формат : AC-3
Формат/Информация : Audio Coding 3
Расширение режима : CM (complete main)
Параметр Endianness формата : Big
Режим смешивания : DVD-Video
Продолжительность : 21 м.
Вид битрейта : Постоянный
Битрейт : 448 Кбит/сек
Каналы : 6 каналов
Расположение каналов : Front: L C R, Side: L R, LFE
Частота : 48,0 КГц
Битовая глубина : 16 бит
Метод сжатия : С потерями
Размер потока : 67,8 Мбайт (7%)
Меню

Постеры и обложки

Скриншоты меню


_________________
Показать сообщения:    

Текущее время: Сегодня 05:34

Часовой пояс: GMT



Вы не можете начинать темы
Вы не можете отвечать на сообщения
Вы не можете редактировать свои сообщения
Вы не можете удалять свои сообщения
Вы не можете голосовать в опросах
Вы не можете прикреплять файлы к сообщениям
Вы не можете скачивать файлы