Важное объявление!
У Нас Все раздачи мультитрекерные, при нуле пиров в релизах, можете смело вставать на закачку!
Статистика раздачи
Размер:     |    Зарегистрирован:     |    Скачан:     |   
Нет
 
     
 
 
Автор Сообщение

HUNTER

Стаж:
5 лет
Сообщений:
67920

Репутация: 101

[+] [-]
Вне форума [Профиль] [ЛС]

«Не попади в его коллекцию»-
Год выпуска: 2012
Страна: США
Жанр: ужасы, боевик, триллер
Продолжительность: 01:21:38-Перевод: Профессиональный (полное дублирование)
Режиссер: Маркус Данстэн / Marcus Dunstan
В ролях: Джош Стюарт (Arkin), Эмма Фитцпатрик (Elena), Кристофер МакДональд (Mr. Peters), Ли Тергесен (Lucello), Тим Гриффин (Dre), Андре Ройо (Wally), Рэндолл Арчер (The Collector), Шеннон Кэйн (Paz), Брэндон Молале (Lin), Эрин Вэй (Abby), Джоанна Е. Брэдди (Missy Solomon), Нави Рават (Lisa)-Описание: Бывалому медвежатнику Аркину чудесным образом удалось выбраться из ловушек, расставленных по дому загадочным маньяком Коллекционером. Аркин был уверен, что он никогда в жизни больше не встретится с Коллекциoнером, но cудьба распоряжается иначе.--Качество: BDRip - AVC
Контейнер: MKV
Видео кодек: AVC
Аудио кодек: DTS
Видео: AVC, 1024x432 (2.35:1), 3446 kbps, 24 fps, 0,325 bpp
Аудио: Русский / DTS / 5.1 / 48 kHz / 1510 kbps / 16 bit-Рип: and77200
Рейтинг Рейтинг:
MPAA: R - Лицам до 17 лет обязательно присутствие взрослого

Media Info

General
Complete name : E:\торрент\The Collection 2012.BDRip - AVC.mkv
Format : Matroska
File size : 2.83 GiB
Duration : 1h 21mn
Overall bit rate : 4 956 Kbps
Encoded date : UTC 2013-01-26 14:38:21
Writing application : mkvmerge v5.8.0 ('No Sleep / Pillow') built on Sep 2 2012 15:37:04
Writing library : libebml v1.2.3 + libmatroska v1.3.0
Video
ID : 1
Format : AVC
Format/Info : Advanced Video Codec
Format profile : [url=mailto:High@L4.1]High@L4.1[/url]
Format settings, CABAC : Yes
Format settings, ReFrames : 5 frames
Muxing mode : Container profile=Unknown@4.1
Codec ID : V_MPEG4/ISO/AVC
Duration : 1h 21mn
Bit rate : 3 347 Kbps
Nominal bit rate : 3 446 Kbps
Width : 1 024 pixels
Height : 432 pixels
Display aspect ratio : 2.35:1
Frame rate : 24.000 fps
Resolution : 24 bits
Colorimetry : 4:2:0
Scan type : Progressive
Bits/(Pixel*Frame) : 0.315
Stream size : 1.91 GiB (68%)
Writing library : x264 core 125 r2208 d9d2288
Encoding settings : cabac=1 / ref=5 / deblock=1:-1:-1 / analyse=0x3:0x113 / me=umh / subme=7 / psy=1 / psy_rd=1.00:0.20 / mixed_ref=1 / me_range=16 / chroma_me=1 / trellis=2 / 8x8dct=1 / cqm=0 / deadzone=21,11 / fast_pskip=0 / chroma_qp_offset=-3 / threads=3 / lookahead_threads=1 / sliced_threads=0 / nr=0 / decimate=0 / interlaced=0 / bluray_compat=0 / constrained_intra=0 / bframes=3 / b_pyramid=2 / b_adapt=2 / b_bias=0 / direct=3 / weightb=1 / open_gop=0 / weightp=2 / keyint=250 / keyint_min=24 / scenecut=40 / intra_refresh=0 / rc_lookahead=50 / rc=2pass / mbtree=1 / bitrate=3446 / ratetol=1.0 / qcomp=0.60 / qpmin=0 / qpmax=69 / qpstep=4 / cplxblur=20.0 / qblur=0.5 / vbv_maxrate=50000 / vbv_bufsize=50000 / nal_hrd=none / ip_ratio=1.40 / aq=1:1.00
Audio
ID : 2
Format : DTS
Format/Info : Digital Theater Systems
Codec ID : A_DTS
Duration : 1h 21mn
Bit rate mode : Constant
Bit rate : 1 510 Kbps
Channel(s) : 6 channels
Channel positions : Front: L C R, Surround: L R, LFE
Sampling rate : 48.0 KHz
Resolution : 16 bits
Stream size : 882 MiB (30%)

Скриншоты


_________________
Показать сообщения:    

Текущее время: Сегодня 14:56

Часовой пояс: GMT



Вы не можете начинать темы
Вы не можете отвечать на сообщения
Вы не можете редактировать свои сообщения
Вы не можете удалять свои сообщения
Вы не можете голосовать в опросах
Вы не можете прикреплять файлы к сообщениям
Вы не можете скачивать файлы