Ивановский Торрент трекер
Яндекс.Погода
Статистика раздачи
Размер:  3.25 GB   |    Зарегистрирован:  2 года   |    Скачан:  0 раз

Полного источника не было: Никогда

 
     
 
 
 

[Цитировать]
HUNTER

Колледж / Tart
Страна: США, Канада
Студия: Green Moon Productions, Interlight
Жанр: криминальная драма
Год выпуска: 2001
Продолжительность: 01:31:17
Перевод: Профессиональный (двухголосый закадровый)
Cубтитры: английские
Оригинальная аудиодорожка: английский
Режиссер: Кристина Вейн / Christina Wayne
В ролях: Доминик Суэйн, Брэд Ренфро, Мелани Гриффит, Бижу Филлипс, Миша Бартон, Альберта Уотсон, Майлс Джеффри, Скотт Томпсон, Майкл Мерфи, Нора Зехетнер, Джекоб Питтс и др.
Описание: Симпатичная, но одинокая Кэт Сторм учится в самом престижном колледже Нью-Йорка «Хьюитт» пытаясь найти друзей среди элитных студентов, которые вовсе не жаждут общаться с девушкой не их круга. Кэт влюблена в звезду «Хьюитта» красивого и самоуверенного Уильяма, и вскоре к своему невероятному удивлению она узнает, что эти чувства взаимны. Ослепленная романом с парнем ее мечты, Кэт считает, что вознеслась на вершину студенческой славы, но спустя некоторое время «ближний круг» внезапно отвергает ее. Пытаясь понять причину столь резкой перемены в отношениях, Кэт постепенно начинает узнавать шокирующую правду о своих новых друзьях, понимая, как плохо она знает Уильяма…
II Сэмпл II IMDB II
Доп. информация:
За двухголосый перевод и оригинальную шестиканальную дорогу спасибо гацкий папа
Тип релиза: WEB-DL 720p
Контейнер: MKV
Видео: AVC / 1280x718 / 16:9 / 23.976fps / Bit rate 3989Kbps
Аудио 1: AC3 / 48.0 KHz / 6ch. / 448kbps / rus / dvo
Аудио 2: AC3 / 48.0 KHz / 6ch. / 448kbps / eng / DVD
Аудио 3: AAC-LC / 48.0 KHz / 2ch. / 125kbps / eng / WEB-DL
Формат субтитров: softsub (SRT)

MediaInfo

Общее
Уникальный идентификатор : 218622402780838001924901321988252013964 (0xA47924A8F2D451C387670CFD1B92958C)
Полное имя : G:\!!!_torrent\Tart.2001.WEB-DL.720p_by_vedigo.mkv
Формат : Matroska
Версия формата : Version 4 / Version 2
Размер файла : 3,25 Гбайт
Продолжительность : 1 ч. 32 м.
Общий поток : 5042 Кбит/сек
Название фильма : Tart.2001.WEB-DL.720p_by_vedigo
Дата кодирования : UTC 2015-10-20 07:22:22
Программа кодирования : mkvmerge v8.5.0 ('Vanishing Act') 64bit
Библиотека кодирования : libebml v1.3.1 + libmatroska v1.4.2
DURATION : 01:32:16.992000000
NUMBER_OF_FRAMES : 173031
NUMBER_OF_BYTES : 310071552
_STATISTICS_WRITING_APP : mkvmerge v8.5.0 ('Vanishing Act') 64bit
_STATISTICS_WRITING_DATE_UTC : 2015-10-20 07:22:22
_STATISTICS_TAGS : BPS DURATION NUMBER_OF_FRAMES NUMBER_OF_BYTES
Видео
Идентификатор : 1
Формат : AVC
Формат/Информация : Advanced Video Codec
Профиль формата : High@L3.1
Параметр CABAC формата : Нет
Параметр ReFrames формата : 2 кадра
Идентификатор кодека : V_MPEG4/ISO/AVC
Продолжительность : 1 ч. 32 м.
Ширина : 1280 пикселей
Высота : 718 пикселей
Соотношение сторон : 16:9
Режим частоты кадров : Постоянный
Частота кадров : 23,976 кадра/сек
Цветовое пространство : YUV
Субдискретизация насыщенности : 4:2:0
Битовая глубина : 8 бит
Тип развёртки : Прогрессивная
Заголовок : Tart.2001.WEB-DL.720p_by_vedigo
Default : Да
Forced : Нет
Цветовой диапазон : Limited
Основные цвета : BT.709
Характеристики трансфера : BT.709
Коэффициенты матрицы : BT.709
Аудио #1
Идентификатор : 2
Формат : AC-3
Формат/Информация : Audio Coding 3
Расширение режима : CM (complete main)
Параметр Endianness формата : Big
Идентификатор кодека : A_AC3
Продолжительность : 1 ч. 32 м.
Вид битрейта : Постоянный
Битрейт : 448 Кбит/сек
Каналы : 6 каналов
Расположение каналов : Front: L C R, Side: L R, LFE
Частота : 48,0 КГц
Метод сжатия : С потерями
Размер потока : 296 Мбайт (9%)
Заголовок : DVO
Язык : Russian
Default : Да
Forced : Нет
Аудио #2
Идентификатор : 3
Формат : AC-3
Формат/Информация : Audio Coding 3
Расширение режима : CM (complete main)
Параметр Endianness формата : Big
Идентификатор кодека : A_AC3
Продолжительность : 1 ч. 32 м.
Вид битрейта : Постоянный
Битрейт : 448 Кбит/сек
Каналы : 6 каналов
Расположение каналов : Front: L C R, Side: L R, LFE
Частота : 48,0 КГц
Метод сжатия : С потерями
Размер потока : 296 Мбайт (9%)
Заголовок : original @ DVD
Язык : English
Default : Нет
Forced : Нет
Аудио #3
Идентификатор : 4
Формат : AAC
Формат/Информация : Advanced Audio Codec
Профиль формата : LC
Идентификатор кодека : A_AAC
Продолжительность : 1 ч. 32 м.
Каналы : 2 канала
Расположение каналов : Front: L R
Частота : 48,0 КГц
Метод сжатия : С потерями
Заголовок : original @ WEB-DL
Язык : English
Default : Нет
Forced : Нет
Текст
Идентификатор : 5
Формат : UTF-8
Идентификатор кодека : S_TEXT/UTF8
Идентификатор кодека/Информация : UTF-8 Plain Text
Заголовок : subtitle eng
Язык : English
Default : Нет
Forced : Нет
Меню
00:00:00.000 : en:Nice Girl
00:03:13.000 : en:I Lost It
00:06:21.000 : en:Journey
00:09:58.000 : en:Trouble
00:14:22.000 : en:Bloody Brilliant
00:18:51.000 : en:Forgetting Something
00:23:20.000 : en:Hot Pursuit
00:26:30.000 : en:Perfect Party
00:31:37.000 : en:Sweet
00:35:46.000 : en:Drama
00:40:34.000 : en:Visiting Dad
00:43:51.000 : en:Ball
00:47:07.000 : en:Party Gift
00:51:41.000 : en:Head First
00:55:09.000 : en:Talk Later
00:59:55.000 : en:Big Black Hole
01:03:10.000 : en:Truth & Lies
01:06:45.000 : en:Country
01:10:11.000 : en:Bonfire
01:13:19.000 : en:You're Over
01:17:39.000 : en:Ride Home
01:20:34.000 : en:News
01:22:27.000 : en:On The Rocks
01:26:36.000 : en:End Credits

Скриншоты


[iv-torrents.ru].t52117.torrent
Торрент: Зарегистрирован [ 2015-12-08 11:00 ] · 80FCAB0F4CB5A00D3EACC9E29EC4FE06C0C6EB22

Скачать .torrent

Скачать

17 KB

Статус: проверено
Скачан: 0 раз
Размер: 3.25 GB
terms.php


Показать сообщения:    

Текущее время: 11-Дек 11:33

Часовой пояс: UTC ± 0


Вы не можете начинать темы
Вы не можете отвечать на сообщения
Вы не можете редактировать свои сообщения
Вы не можете удалять свои сообщения
Вы не можете голосовать в опросах
Вы не можете прикреплять файлы к сообщениям
Вы можете скачивать файлы

!ВНИМАНИЕ!
Сайт не предоставляет электронные версии произведений, а занимается лишь коллекционированием и каталогизацией ссылок, присылаемых и публикуемых на форуме нашими читателями. Если вы являетесь правообладателем какого-либо представленного материала и не желаете, чтобы ссылка на него находилась в нашем каталоге, свяжитесь с нами, и мы незамедлительно удалим ее. Файлы для обмена на трекере предоставлены пользователями сайта, и администрация не несет ответственности за их содержание. Просьба не заливать файлы, защищенные авторскими правами, а также файлы нелегального содержания!