Важное объявление!
У Нас Все раздачи мультитрекерные, при нуле пиров в релизах, можете смело вставать на закачку!
 
Автор Сообщение

HUNTER

Стаж:
4 года 8 месяцев
Сообщений:
62050

Репутация: 101

[+] [-]
Вне форума [Профиль] [ЛС]

Колдун / Sorcerer
Страна: США
Студия: Paramount Pictures, Universal Pictures
Жанр: боевик, драма, приключения
Год выпуска: 1977
Продолжительность: 02:01:31
Перевод: Авторский (одноголосый закадровый) Михаил Иванов
Перевод 2: Одноголосый закадровый Максимов
Cубтитры: английские
Оригинальная аудиодорожка: английский
Режиссер: Уильям Фридкин / William Friedkin
В ролях: Рой Шайдер (Jackie Scanlon - «Juan Dominguez»), Бруно Кремер (Victor Manzon - «Serrano»), Франсиско Рабаль (Nilo), Амиду (Kassem - «Martinez»), Рамон Биери (Corlette), Питер Кэпелл (Lartigue), Карл Джон («Marquez»), Фридрих фон Ледебур («Carlos»), Чико Мартинес (Bobby Del Rios), Джо Спинелл (Spider), Rosario Almontes (Agrippa), Ричард Холли (Billy White)
Описание: Нефтяная компания ищет водителей, готовых перевезти на грузовике груз со взрывчаткой. А четверо мужчин не могут вернуться в родные страны и по разным причинам вынуждены скрываться в Латинской Америке. Им нечего терять, но в случае успешного завершения операции каждый получит по 10 тысяч долларов и гражданство. Их ждут 200 миль дороги, где за каждым поворотом подстерегает опасность
Кинопоиск|IMDB|Сэмпл
Тип релиза: BDRip 720p
Контейнер: MKV
Видео: MPEG4 Video (H264) 1280x720 23.976fps 10.6 Mbps
Аудио: Russian Dolby AC3 48000Hz stereo 192kbps
Аудио 2: Russian Dolby AC3 48000Hz stereo 192kbps
Аудио 3: English DTS 48.0 KHz 6 ch 1 509 Kbps
Формат субтитров: softsub (SRT)

Цитата:
Цитата:

Сохранены оригинальные чаптеры
Русские аудио дорожки взяты с этой раздачи Thx DIABLO93
MediaInfo
General
Unique ID : 231902156617423606598329199867454022581 (0xAE76BB1312209E8694E3A672390BE3B5)
Complete name : C:\Users\Вика\Desktop\Sorcerer.1977.720p.BluRay.DTS.x264-SbR.mkv
Format : Matroska
Format version : Version 4 / Version 2
File size : 10.8 GiB
Duration : 2h 1mn
Overall bit rate : 12.8 Mbps
Encoded date : UTC 2014-05-28 06:12:45
Writing application : mkvmerge v6.9.1 ('Blue Panther') 64bit built on Apr 18 2014 18:23:38
Writing library : libebml v1.3.0 + libmatroska v1.4.1
Video
ID : 1
Format : AVC
Format/Info : Advanced Video Codec
Format profile : High@L4.1
Format settings, CABAC : Yes
Format settings, ReFrames : 9 frames
Codec ID : V_MPEG4/ISO/AVC
Duration : 2h 1mn
Bit rate : 10.6 Mbps
Width : 1 280 pixels
Height : 720 pixels
Display aspect ratio : 16:9
Frame rate mode : Constant
Frame rate : 23.976 fps
Color space : YUV
Chroma subsampling : 4:2:0
Bit depth : 8 bits
Scan type : Progressive
Bits/(Pixel*Frame) : 0.480
Stream size : 9.01 GiB (83%)
Writing library : x264 core 142 r2409kMod d6b4e63
Encoding settings : cabac=1 / ref=9 / deblock=1:-3:-3 / analyse=0x3:0x133 / me=tesa / subme=10 / psy=1 / fade_compensate=0.00 / psy_rd=0.85:0.05 / mixed_ref=1 / me_range=24 / chroma_me=1 / trellis=2 / 8x8dct=1 / cqm=0 / deadzone=21,11 / fast_pskip=0 / chroma_qp_offset=-3 / threads=6 / lookahead_threads=1 / sliced_threads=0 / nr=0 / decimate=1 / interlaced=0 / bluray_compat=0 / constrained_intra=0 / fgo=0 / bframes=12 / b_pyramid=2 / b_adapt=2 / b_bias=0 / direct=3 / weightb=1 / open_gop=0 / weightp=2 / keyint=250 / keyint_min=23 / scenecut=40 / intra_refresh=0 / rc_lookahead=60 / rc=crf / mbtree=0 / crf=18.5000 / qcomp=0.70 / qpmin=0 / qpmax=69 / qpstep=4 / vbv_maxrate=62500 / vbv_bufsize=78125 / crf_max=0.0 / nal_hrd=none / filler=0 / ip_ratio=1.30 / pb_ratio=1.20 / aq=1:0.80
Language : English
Default : Yes
Forced : No
Audio #1
ID : 2
Format : AC-3
Format/Info : Audio Coding 3
Mode extension : CM (complete main)
Format settings, Endianness : Big
Codec ID : A_AC3
Duration : 2h 1mn
Bit rate mode : Constant
Bit rate : 192 Kbps
Channel count : 2 channels
Channel positions : Front: L R
Sampling rate : 48.0 KHz
Bit depth : 16 bits
Compression mode : Lossy
Stream size : 167 MiB (2%)
Title : Авторский (Михаил Иванов)
Default : Yes
Forced : No
Audio #2
ID : 3
Format : AC-3
Format/Info : Audio Coding 3
Mode extension : CM (complete main)
Format settings, Endianness : Big
Codec ID : A_AC3
Duration : 2h 1mn
Bit rate mode : Constant
Bit rate : 192 Kbps
Channel count : 2 channels
Channel positions : Front: L R
Sampling rate : 48.0 KHz
Bit depth : 16 bits
Compression mode : Lossy
Stream size : 167 MiB (2%)
Title : Одноголосый (Максимов)
Default : No
Forced : No
Audio #3
ID : 4
Format : DTS
Format/Info : Digital Theater Systems
Mode : 16
Format settings, Endianness : Big
Codec ID : A_DTS
Duration : 2h 1mn
Bit rate mode : Constant
Bit rate : 1 509 Kbps
Channel count : 6 channels
Channel positions : Front: L C R, Side: L R, LFE
Sampling rate : 48.0 KHz
Bit depth : 24 bits
Compression mode : Lossy
Stream size : 1.28 GiB (12%)
Language : English
Default : No
Forced : No
Text
ID : 5
Format : UTF-8
Codec ID : S_TEXT/UTF8
Codec ID/Info : UTF-8 Plain Text
Title : SDH
Language : English
Default : No
Forced : No
Menu
00:00:00.000 : en:00:00:00.000
00:01:29.798 : en:00:01:29.798
00:06:37.480 : en:00:06:37.480
00:16:12.930 : en:00:16:12.930
00:24:14.078 : en:00:24:14.078
00:40:14.370 : en:00:40:14.370
00:47:30.431 : en:00:47:30.431
00:52:00.993 : en:00:52:00.993
00:55:00.380 : en:00:55:00.380
01:03:27.095 : en:01:03:27.095
01:08:41.951 : en:01:08:41.951
01:15:46.834 : en:01:15:46.834
01:26:33.688 : en:01:26:33.688
01:41:17.989 : en:01:41:17.989
01:43:30.121 : en:01:43:30.121
01:47:16.138 : en:01:47:16.138
01:54:05.922 : en:01:54:05.922
01:58:32.105 : en:01:58:32.105
Скриншоты

_________________
Показать сообщения:    

Текущее время: Сегодня 15:41

Часовой пояс: GMT



Вы не можете начинать темы
Вы не можете отвечать на сообщения
Вы не можете редактировать свои сообщения
Вы не можете удалять свои сообщения
Вы не можете голосовать в опросах
Вы не можете прикреплять файлы к сообщениям
Вы не можете скачивать файлы
Наши партнеры: интернет магазин Ивановского трикотажа textilla.ru