Важное объявление!
У Нас Все раздачи мультитрекерные, при нуле пиров в релизах, можете смело вставать на закачку!
Статистика раздачи
Размер:     |    Зарегистрирован:     |    Скачан:     |   
Нет
 
     
 
 
Автор Сообщение

HUNTER

Стаж:
5 лет
Сообщений:
68053

Репутация: 101

[+] [-]
Вне форума [Профиль] [ЛС]

-Колдовская доска 2: Портал Дьявола / Witchboard 2: The Devil's Doorway-Страна: США
Жанр: мистика, ужасы
Год выпуска: 1993
Продолжительность: 01:39:03-Перевод: Авторский (одноголосый закадровый) Андрей Гаврилов
Перевод 2: Одноголосый закадровый
Cубтитры: нет
Оригинальная аудиодорожка: английский-Режиссер: Кевин Тенни / Kevin Tenney
В ролях: Эми Доленц, Кристофер Майкл Мур, Лорейн Ньюмен, Тимоти Гиббс, Джон Гэйтинс, Джули Майклс, Сара Кайте Кохлан, Марвин Каплан, Джефф Феринга, Тодд Аллен, Кенни Родс, Хезер Элизабет Пакхёрст-Описание: Художница Пейдж снимает квартиру в многоэтажном доме. С помощью колдовской доски, найденной в кладовке, она связывается с духом женщины, которая раньше жила в этой квартире. Пейдж заинтересовывается сообщением Сьюзан, что та была убита, но? к своему большому удивлению не находит никакой информации ни о убийстве, ни о смерти Сьюзан Сидни. Тем временем жильцы дома начинают погибать самыми разнообразными способами...-Сэмпл: https://yadi.sk/i/eXzvvznNpZse2-Тип релиза: BDRemux 1080p
Контейнер: MKV
Видео: MPEG-4 AVC Video 22963 kbps 1080p / 23.976 fps / 16:9 / High Profile 4.1
Аудио: Dolby Digital Audio Russian 192 kbps 2.0 / 48 kHz | Андрей Гаврилов
Аудио 2: Dolby Digital Audio Russian 192 kbps 2.0 / 48 kHz | VO
Аудио 3: DTS-HD Master Audio English 1573 kbps 2.0 / 48 kHz / 1573 kbps / 16-bit (DTS Core: 2.0 / 48 kHz / 1509 kbps / 16-bit)

MI

GeneralUnique ID : 189639799749436413020165151795226982510 (0x8EAB4C018A5450F8BFDBCCBCC075B86E)Complete name : P:\Ужасы\Колдовская доска 2. Портал Дьявола (1993. Witchboard 2. The Devil's Doorway).mkvFormat : MatroskaFormat version : Version 2File size : 17.2 GiBDuration : 1h 39mnOverall bit rate mode : VariableOverall bit rate : 24.9 MbpsMovie name : Release for RuTrackerEncoded date : UTC 2016-02-26 18:07:30Writing application : mkvmerge v4.9.1 ('Ich will') сборка от Jul 11 2011 23:53:15Writing library : libebml v1.2.1 + libmatroska v1.1.1Attachment : Yes
VideoID : 1Format : AVCFormat/Info : Advanced Video CodecFormat profile : High@L4.1Format settings, CABAC : YesFormat settings, ReFrames : 4 framesFormat settings, GOP : M=3, N=24Codec ID : V_MPEG4/ISO/AVCDuration : 1h 39mnBit rate mode : VariableMaximum bit rate : 31.9 MbpsWidth : 1 920 pixelsHeight : 1 080 pixelsDisplay aspect ratio : 16:9Frame rate mode : ConstantFrame rate : 23.976 fpsStandard : NTSCColor space : YUVChroma subsampling : 4:2:0Bit depth : 8 bitsScan type : ProgressiveLanguage : EnglishDefault : YesForced : NoColor primaries : BT.709Transfer characteristics : BT.709Matrix coefficients : BT.709
Audio #1ID : 2Format : AC-3Format/Info : Audio Coding 3Mode extension : CM (complete main)Format settings, Endianness : BigCodec ID : A_AC3Duration : 1h 39mnBit rate mode : ConstantBit rate : 192 KbpsChannel(s) : 2 channelsChannel positions : Front: L RSampling rate : 48.0 KHzBit depth : 16 bitsCompression mode : LossyStream size : 136 MiB (1%)Title : Андрей ГавриловLanguage : RussianDefault : YesForced : No
Audio #2ID : 3Format : AC-3Format/Info : Audio Coding 3Mode extension : CM (complete main)Format settings, Endianness : BigCodec ID : A_AC3Duration : 1h 39mnBit rate mode : ConstantBit rate : 192 KbpsChannel(s) : 2 channelsChannel positions : Front: L RSampling rate : 48.0 KHzBit depth : 16 bitsCompression mode : LossyStream size : 136 MiB (1%)Title : VOLanguage : RussianDefault : NoForced : No
Audio #3ID : 4Format : DTSFormat/Info : Digital Theater SystemsFormat profile : MA / CoreMode : 16Format settings, Endianness : BigCodec ID : A_DTSDuration : 1h 39mnBit rate mode : VariableBit rate : Unknown / 1 509 KbpsChannel(s) : 2 channelsChannel positions : Front: L RSampling rate : 48.0 KHzBit depth : 16 bitsCompression mode : Lossless / LossyLanguage : EnglishDefault : NoForced : No
Menu00:00:00.000 : en:00:00:00.00000:13:22.844 : en:00:13:22.84400:20:45.911 : en:00:20:45.91100:32:37.706 : en:00:32:37.70600:44:57.194 : en:00:44:57.19400:59:14.634 : en:00:59:14.63401:10:37.483 : en:01:10:37.48301:21:44.191 : en:01:21:44.191

Скриншоты



Зеркало


Цитата:
Цитата:

  • Сохранены оригинальные чаптеры как на Blu-ray.
  • Русский звук [url=viewtopic.php?t=5105714]отсюда[/url]. Обе дороги с VHS, Гаврилов ужасен по качеству, а безымянный наоборот очень приличный. Я бы в нем советовал смотреть.

_________________
Показать сообщения:    

Текущее время: Сегодня 06:59

Часовой пояс: GMT



Вы не можете начинать темы
Вы не можете отвечать на сообщения
Вы не можете редактировать свои сообщения
Вы не можете удалять свои сообщения
Вы не можете голосовать в опросах
Вы не можете прикреплять файлы к сообщениям
Вы не можете скачивать файлы