Важное объявление!
У Нас Все раздачи мультитрекерные, при нуле пиров в релизах, можете смело вставать на закачку!
 
Автор Сообщение

димитри37

Стаж:
4 года 2 месяца
Сообщений:
1236

Репутация: 127

[+] [-]
Вне форума [Профиль] [ЛС]

Козлиный остров / Козы / Standing Up / Goat Island
«They ran away and found themselves.»
«Они сбежали и нашли себя.»
Страна: США
Жанр: Драма, Семейный
Год выпуска: 2013
Продолжительность: 01:29:32
Озвучка: Одноголосый закадровый от humbert sound studio
Перевод: kitmur
Cубтитры: нет
Режиссер: DJ Caruso / Ди Джей Карузо
В ролях: Чандлер Кентербери, Анналиса Бассо, Рада Митчелл, Вэл Килмер, Кейт Флиппен, Уильям Дж. Харрисон, Джаред Кеммерлинг, Кейт Маберли, Блейк Гриффин, Чарльз Кэррол
Описание: Фильм снят по мотивам одного из самых любимых всеми поколениями романа Брока Коула "Козы". Двух подростков - жертв жестокого розыгрыша, популярного в их летнем лагере - раздевают догола и оставляют ночевать на безлюдном острове. Вместо того, чтобы униженными вернуться в лагерь, они решают сбежать. Впереди их ждет трехдневная одиссея, полная неожиданных открытий.
http://www.kinopoisk.ru/film/586415/
Сэмпл (42,5 мб)
Качество видео: DVDRip
Формат видео: MKV
Видео: Mpeg4-AVC, 992*416 (2,40:1), 25,000 кадров/сек, 2195 Кбит/сек
Аудио: AC-3, 2 канала, 16 бит, 48 КГц, 224 Кбит/сек

Цензура

ЖЕЛАТЕЛЬНО ПРИСУТСТВИЕ ВЗРОСЛЫХ
Сцены насилия: [0/10] Отсутствуют
Эротические сцены: [0/10] Отсутствуют
Не нормативная лексика: [0/10] Отсутствует
Предоставленные цифры являются личным мнением humbert sound studio.
Приятного Вам просмотра!

MediaInfo

Общее
Уникальный идентификатор : 200867069229843658663799211479039361750 (0x971D9720FCE97E970B6070F5C2CA42D6)
Полное имя : G:\Мир кино\Goat.Island.2013.(VO.humbertsoundstudio).mkv
Формат : Matroska
Версия формата : Version 2
Размер файла : 1,51 Гбайт
Продолжительность : 1 ч. 29 м.
Общий поток : 2422 Кбит/сек
Название фильма : Standing Up (2013)
Программа кодирования : Lavf52.94.0
Библиотека кодирования : Lavf52.94.0
Видео
Идентификатор : 1
Формат : AVC
Формат/Информация : Advanced Video Codec
Профиль формата : High@L3.0
Параметр CABAC формата : Да
Параметр ReFrames формата : 2 кадра
Идентификатор кодека : V_MPEG4/ISO/AVC
Продолжительность : 1 ч. 29 м.
Битрейт : 2195 Кбит/сек
Ширина : 992 пикселя
Высота : 416 пикселей
Соотношение сторон : 2,40:1
Режим частоты кадров : Постоянный
Частота кадров : 25,000 кадров/сек
Цветовое пространство : YUV
Субдискретизация насыщенности : 4:2:0
Битовая глубина : 8 бит
Тип развёртки : Прогрессивная
Бит/(Пиксели*Кадры) : 0.213
Размер потока : 1,34 Гбайт (89%)
Библиотека кодирования : x264 core 112 r1834 a51816a
Настройки программы : cabac=1 / ref=2 / deblock=1:0:0 / analyse=0x3:0x113 / me=hex / subme=6 / psy=1 / psy_rd=1.00:0.00 / mixed_ref=0 / me_range=16 / chroma_me=1 / trellis=0 / 8x8dct=1 / cqm=0 / deadzone=21,11 / fast_pskip=1 / chroma_qp_offset=-2 / threads=4 / sliced_threads=0 / nr=0 / decimate=1 / interlaced=0 / constrained_intra=0 / bframes=3 / b_pyramid=0 / b_adapt=1 / b_bias=0 / direct=3 / weightb=1 / open_gop=0 / weightp=2 / keyint=250 / keyint_min=25 / scenecut=40 / intra_refresh=0 / rc_lookahead=40 / rc=2pass / mbtree=1 / bitrate=2195 / ratetol=1.0 / qcomp=0.60 / qpmin=10 / qpmax=51 / qpstep=4 / cplxblur=20.0 / qblur=0.5 / ip_ratio=1.41 / aq=1:1.00
Default : Да
Forced : Нет
Аудио
Идентификатор : 2
Формат : AC-3
Формат/Информация : Audio Coding 3
Расширение режима : CM (complete main)
Параметр Endianness формата : Big
Идентификатор кодека : A_AC3
Продолжительность : 1 ч. 29 м.
Вид битрейта : Постоянный
Битрейт : 224 Кбит/сек
Каналы : 2 канала
Расположение каналов : Front: L R
Частота : 48,0 КГц
Битовая глубина : 16 бит
Метод сжатия : С потерями
Размер потока : 143 Мбайт (9%)
Default : Да
Forced : Нет

Скриншот c названием фильма

Скриншоты

Показать сообщения:    

Текущее время: Сегодня 19:43

Часовой пояс: GMT



Вы не можете начинать темы
Вы не можете отвечать на сообщения
Вы не можете редактировать свои сообщения
Вы не можете удалять свои сообщения
Вы не можете голосовать в опросах
Вы не можете прикреплять файлы к сообщениям
Вы не можете скачивать файлы