Ивановский Торрент трекер
Яндекс.Погода
Статистика раздачи
Размер:  10.07 GB   |    Зарегистрирован:  2 года 4 месяца   |    Скачан:  0 раз

Полного источника не было: Никогда

 
     
 
 
 

[Цитировать]
HUNTER

Код доступа «Кейптаун» / Safe House
Страна: США, ЮАР
Жанр: боевик, триллер, криминал, детектив
Год выпуска: 2012
Продолжительность: 01:46:37
Перевод: Профессиональный (дублированный)
Cубтитры: нет
Оригинальная аудиодорожка: нет
Режиссер: Дэниэл Эспиноза / Daniel Espinosa
В ролях: Дензел Вашингтон (Tobin Frost), Райан Рейнольдс (Matt Weston), Вера Фармига (Catherine Linklater), Брендан Глисон (David Barlow), Сэм Шепард (Harlan Whitford), Рубен Бладес (Carlos Villar), Нора Арнезедер (Ana Moreau), Роберт Патрик (Daniel Kiefer), Лиам Каннингэм (Alec Wade), Юэль Киннаман (Keller), Фарес Фарес (Vargas), Дженна Довер (CIA Analyst)
Описание: Выпускник Гарварда Мэтт мечтает со своей невестой переехать в Париж. Но она не знает, что уже год он работает на ЦРУ. Легендарный агент ЦРУ Фрост владеет секретной информацией. Но он вышел из-под контроля, и теперь его главное правило: «не доверяй никому — тебя предаст каждый». Их пути пересекутся в одном из красивейших городов мира — Кейптауне, где каждый должен будет сделать свой выбор.
Доп. информация: BD и HDTV имеют разное наполнение кадра http://screenshotcomparison.com/comparison/136710
Сэмпл: http://multi-up.com/1060319
Тип релиза: HDTV 1080i
Контейнер: TS
Видео: AVC, 1920x1080 (16:9), 25.000 fps, 12.7 Mbps (0.244 bit/pixel)
Аудио: MP2, 48.0 KHz, 2 ch, 192 Kbps, CBR (Russian)

MediaInfo

Общее
Идентификатор : 3 (0x3)
Полное имя : K:\Код доступа «Кейптаун».ts
Формат : MPEG-TS
Размер файла : 10,1 Гбайт
Продолжительность : 1 ч. 46 м.
Режим общего битрейта : Переменный
Общий поток : 13,5 Мбит/сек
Видео
Идентификатор : 2141 (0x85D)
Идентификатор меню : 21004 (0x520C)
Формат : AVC
Формат/Информация : Advanced Video Codec
Профиль формата : Main@L4
Параметр CABAC формата : Да
Параметр ReFrames формата : 3 кадра
Идентификатор кодека : 27
Продолжительность : 1 ч. 46 м.
Битрейт : 12,7 Мбит/сек
Ширина : 1920 пикселей
Высота : 1080 пикселей
Соотношение сторон : 16:9
Частота кадров : 25,000 кадров/сек
Стандарт вещания : Component
Цветовое пространство : YUV
Субдискретизация насыщенности : 4:2:0
Битовая глубина : 8 бит
Тип развёртки : Чересстрочная
Порядок развёртки : Верхнее поле первое
Бит/(Пиксели*Кадры) : 0.244
Размер потока : 9,42 Гбайт (94%)
Цветовой диапазон : Limited
Основные цвета : BT.709
Характеристики трансфера : BT.709
Коэффициенты матрицы : BT.709
Аудио
Идентификатор : 2142 (0x85E)
Идентификатор меню : 21004 (0x520C)
Формат : MPEG Audio
Версия формата : Version 1
Профиль формата : Layer 2
Идентификатор кодека : 4
Продолжительность : 1 ч. 46 м.
Вид битрейта : Постоянный
Битрейт : 192 Кбит/сек
Каналы : 2 канала
Частота : 48,0 КГц
Метод сжатия : С потерями
Задержка видео : -8 мс.
Размер потока : 146 Мбайт (1%)
Язык : Russian

Скриншоты

[iv-torrents.ru].t47638.torrent
Торрент: Зарегистрирован [ 2015-07-28 10:14 ] · A6A7EF0360BC0820A1184A70A820AF9EC3249DD6

Скачать .torrent

Скачать

51 KB

Статус: проверено
Скачан: 0 раз
Размер: 10.07 GB
terms.php
Похожие темы


Показать сообщения:    

Текущее время: 16-Дек 09:23

Часовой пояс: UTC ± 0


Вы не можете начинать темы
Вы не можете отвечать на сообщения
Вы не можете редактировать свои сообщения
Вы не можете удалять свои сообщения
Вы не можете голосовать в опросах
Вы не можете прикреплять файлы к сообщениям
Вы можете скачивать файлы

!ВНИМАНИЕ!
Сайт не предоставляет электронные версии произведений, а занимается лишь коллекционированием и каталогизацией ссылок, присылаемых и публикуемых на форуме нашими читателями. Если вы являетесь правообладателем какого-либо представленного материала и не желаете, чтобы ссылка на него находилась в нашем каталоге, свяжитесь с нами, и мы незамедлительно удалим ее. Файлы для обмена на трекере предоставлены пользователями сайта, и администрация не несет ответственности за их содержание. Просьба не заливать файлы, защищенные авторскими правами, а также файлы нелегального содержания!