Ивановский Торрент трекер
Яндекс.Погода
 

[Цитировать]
HUNTER

Код да Винчи / The Da Vinci Code-Open Matte - Театральная версия -Страна: США
Студия: Sony Pictures / Columbia Pictures
Жанр: триллер, детектив, мистика
Год выпуска: 2006
Продолжительность: 02:22:36-Перевод: Профессиональный (дублированный)
Cубтитры: нет
Оригинальная аудиодорожка: нет-Режиссер: Рон Ховард / Ron Howard
В ролях: Жан Рено, Одри Тоту, Том Хэнкс, Пол Беттани, Иэн Маккеллен, Альфред Молина, Юрген Прохнов, Жан-Ив Бертело, Этьен Шико, Жан-Пьер Марьель, Рита Дейвис, Франческо Карнелутти, Сет Гейбл, Фаусто Мария Шиараппа-Описание: Гарвардского профессора Роберта Лэнгдона подозревают в чудовищном преступлении, которого он не совершал. Лэнгдон знакомится с криптографом парижской полиции Софи Невё и вместе с ней пытается раскрыть тайну, которая может подорвать могущество католической церкви. Роберт и Софи должны это сделать до того, как их схватят блюстители закона или остановят противники, готовые на все ради сохранения великого религиозного секрета…-Доп. информация: Данная версия отличается наполнением кадра - 16:9.
Сравнение, скриншоты уменьшены для наглядности.
На неанглийскую речь присутствуют вшитые русские субтиры.-SAMPLE-Тип релиза: HDTV 1080i
Контейнер: TS
Видео: MPEG4 (H264) / 1920x1080 (16:9) / ~8300 kbps / 25.00fps / 0.161 bit/pixel
Аудио: Russian / AC3 / 384 Kbps / 48 kHz / 5.1 / 16 bits

MediaInfo

General
ID : 1 (0x1)
Complete name : E:\Da Vinci Code.HDTV.1080i.ts
Format : MPEG-TS
File size : 9.14 GiB
Duration : 2h 22mn
Overall bit rate mode : Variable
Overall bit rate : 9 175 Kbps
Video
ID : 303 (0x12F)
Menu ID : 1 (0x1)
Format : AVC
Format/Info : Advanced Video Codec
Format profile : High@L4
Format settings, CABAC : Yes
Format settings, ReFrames : 4 frames
Format settings, GOP : M=4, N=28
Codec ID : 27
Duration : 2h 22mn
Bit rate : 8 334 Kbps
Width : 1 920 pixels
Height : 1 080 pixels
Display aspect ratio : 16:9
Frame rate : 25.000 fps
Standard : Component
Color space : YUV
Chroma subsampling : 4:2:0
Bit depth : 8 bits
Scan type : Interlaced
Scan order : Top Field First
Bits/(Pixel*Frame) : 0.161
Stream size : 8.30 GiB (91%)
Color range : Limited
Color primaries : BT.709
Transfer characteristics : BT.709
Matrix coefficients : BT.709
Audio
ID : 423 (0x1A7)
Menu ID : 1 (0x1)
Format : AC-3
Format/Info : Audio Coding 3
Mode extension : CM (complete main)
Format settings, Endianness : Big
Codec ID : 6
Duration : 2h 22mn
Bit rate mode : Constant
Bit rate : 384 Kbps
Channel(s) : 6 channels
Channel positions : Front: L C R, Side: L R, LFE
Sampling rate : 48.0 KHz
Compression mode : Lossy
Stream size : 392 MiB (4%)
Language : Russian

Скриншоты

Показать сообщения:    

Текущее время: 21-Окт 18:37

Часовой пояс: UTC - 1


Вы не можете начинать темы
Вы не можете отвечать на сообщения
Вы не можете редактировать свои сообщения
Вы не можете удалять свои сообщения
Вы не можете голосовать в опросах
Вы не можете прикреплять файлы к сообщениям
Вы не можете скачивать файлы

!ВНИМАНИЕ!
Сайт не предоставляет электронные версии произведений, а занимается лишь коллекционированием и каталогизацией ссылок, присылаемых и публикуемых на форуме нашими читателями. Если вы являетесь правообладателем какого-либо представленного материала и не желаете, чтобы ссылка на него находилась в нашем каталоге, свяжитесь с нами, и мы незамедлительно удалим ее. Файлы для обмена на трекере предоставлены пользователями сайта, и администрация не несет ответственности за их содержание. Просьба не заливать файлы, защищенные авторскими правами, а также файлы нелегального содержания!